&title= Ad astra per aspera
&artist=Rabbit House
&first=0
&des=Reksote on ZeroClass
&lv_5=14+
&inote_5=(197){16}6,,6,5,6,,3,4,,6,5,,
{16}5,4,5,4,6b/3b,,,7,,,
{8}1>6[4:1],{4}3h[8:1],
{16}8,1,2,3,4,5,8,7,6,5,4,1,2,3,7,6,5,2,3,4,5b/7,,,8,,,
{8}8<3[4:1],{4}6h[8:1],
{16}1,8,7,6,5,4,1,2,3,4,5,8,7,6,2,3,4,7,6,5,4b/2,,
{8}3,3,3,3/6,6,6,6,
6/2x,2,2,2,2/7x,7,7,7,
{16}2bx,3,4,5,8bx,7,6,5,1bx,2,3,4,7bx,6,5,4,
2bx,3,4,5,6,7,8,1,2/6,5,4,3,2,1,8,7,
{4}6h[4:1],{8}Cf/B1/B2,5h[8:1],4,5h[8:1],4,5h[8:1],
4,3h[8:1],6,3h[8:1],6,3h[8:1],6,3h[8:1],
6,7h[8:1],4,7h[8:1],4,7h[8:1],4,7h[8:1],
4,2h[8:1],5,2h[8:1],5,2h[8:1],5,6h[8:1],
3-1b[8:1],6h[8:1],3,5h[8:1],3-8[8:1],5h[8:1],3,6h[8:1],
3-1b[8:1],6h[8:1],3,7h[8:1],3,7h[8:1],3,2h[8:1],
6-8b[8:1],2h[8:1],6,3h[8:1],6-1[8:1],3h[8:1],6,2h[8:1],
6,2h[8:1],6,6,2b-6[8:1],6b-2b[8:1],
{4},
{16}8,7,6,5,2,3,4,5,7,8,1,2,3,4,5,6,7,
{16},2,1,2,,3/8,,3,4,,4,5,,6,,
{16}1,2,3,4,7,6,5,4,2,1,8,7,6,5,4,3,2,
{16},7,8,7,,6/1,,6,5,,5,4,,3,,
{16}2,1,2,1,2,3,4,5,7,8,7,8,7,6,5,4,
{16}1,2,3,1,8,7,2,3,4,8,7,6,4/5,,6,,
{16}3h[4:1]/5h[8:1],,,,8,7,6,5,2h[4:1]/4h[8:1],,,,7,6,5,4,
{48}1b/3b,,,,,,,,,,7b/5b,,,,,,,,6b/8b,,,,,1b/5bh[8:1],,,,,
{16}E5,E6,E7,E8,E1,E2,E3,
{16}3x/4x,,2,1,2,,3/8,,7,4h[8:1],,3,3h[8:1],,2,,
{16}6/5,,7,8,7,,6/1,,2,5h[8:1],,6,6h[8:1],,7,,
{16}1,2,3,4,2,3,4,5,8,7,6,5,7,6,5,4,
{16}1,2,3,4/5,6,7,1,2,3,4/5,6,7,8,1,2,3,
{16}4,5,6,7,4,3,2,1,5,6,7,8,3,2,1,8,
{16}6,5,4,3,2,1,8,7,6/3,4,5,6,7,8,1,2,
{8}3/7,3/7,2/6,2/6,1/5,1/5,4/8,4/8,
{16}7,3,7,3,7,3,7h[16:2],3h[16:1],,
{24},
{24}4bx/8bx,1<6[8:1]/5>2[8:1],2/6,3/7,,,1xb/5xb,A4/A8,A3/A7,
{1}A2/A6,E6/B5,E8/B7,B1/E2,B3/E4,E7/B7/E5,B2/E3/E1,
{2}B6/Ch[2:1]/B3,E5,
{16}5bx/3bx,6,7,8,2,3,4,5,8,7,6,5,2,3,4,5,1,2,3,4,8,1,2,3,
{8}6,6,6,6,6<1[8:1],5,4,3<6[8:1],2,1,8>3[8:1],7,6,5,
{16}4,5,3,6,4,5,2,7,3,6,4/5,,3b/B5,B6,B7,B8,E1,,
{16}E3,B3,B4,,
{8}7,8,1,2/6b,E7,E8,E2,E3,E1,C,E5,
{8}2b/4,2,2,7b/5,7,7,6/4b,7,8,5b/3,2,1,
{8}1b,8b,8b,1b,
{16}8b/7b,1,2-6[8:1],3,6b-2b[8:1]/4,,5,5,,7,7,,8,,8b,,
{16}1/2,8,7-3[8:1],6,3b-7b[8:1]/5,,4,4,,2,2,,1,,1b,,
{16}7,8,7,8,7,6,7,6,5,6,5,6,5<1[4:1],,,,E3,,E4,,E5f/B5/B4,,7x,,
{16}2,5,2,5,3,4,3,,
{16}4/3,5,6-2[8:1],7,2b-6b[8:1]/8,,1,1,,3,3,,4,,4b,,
{16}5/6,4,3-7[8:1],2,7b-3b[8:1]/1,,8,8,,6,6,,5,,5b,,
{16}4-2[8:1],,4-6[8:1],,,,,,
{16}1,,2-6[8:1],4,3,,2/6,,
{16}8,,7-3[8:1],5,6,,7/3,,
{8}2,1,8,7,
{16}5/6,4,3-7[8:1],2,7b-3b[8:1]/1,,8,8,,6,6,,5,,5b,,
{16}4/3,5,6-2[8:1],7,2b-6b[8:1]/8,,1,1,,3,3,,4,,4b,,
{16}2,1,2,1,2,3,2,3,4,3,4,3,4>8[4:1],,,,E7,,E6,,E5f/B4/B5,,2x,,
{16}3,8,3,8,2,1,2,,
{16}1/2,8,7-3[8:1],6,3b-7b[8:1]/5,,4,4,,2,2,,1,,1b,,
{16}8/7,1,2-6[8:1],3,6b-2b[8:1]/4,,5,5,,7,7,,8,,8b,,
{16}1-3[8:1],,1-7[8:1],,,,,,
{16}4,,6-2[8:1],5,6,,8/6,,
{16}5,,3-7[8:1],4,3,,1/3,,
{8}2,4,6w2b[8:1],8,A6f,,
{16},,,,,,
{16}2,4,3,5,3,5,
{16}4,6,4,5,4,3,4,2,4,1,4,8,3,7,2,6,
{16}1,5,2,4,3,,8,4,7,5,6,,8,1,6,3,7b,,
{16}3,4,2,6,5,7,3,5,1,6,4,8,2,6,
{16}1,8,7,6,1/5,4/8,3/7,2/6,5,4,3,2,1/5,4/8,3/7,2/6,1b/5b,,
{16}7,8,7,,1b/6b,,3b/8b,,2,1,2,,3b/8b,,
{24}7b,6,5,8,7,6,2b,3,4,1,2,3,{16}8b/4,7,6,5,4b/8,3,2,1,
{8}8b/4h[4:3],,,,,,,3b/5b,
{1}2bh[4:5]/6bh[4:5],
{2},
{8}5bw1b[8:1]/1b,3b/7b,,,
{16}3/7,,6,,2/5,,3,4,,2,1,,3/8,,4/6,,
{48}5b/7b,,,,,,,,,,3b/1b,,,,,,,,2bh[8:5]/4b,,,,,,
{32}E6,E7,E8,E1,E2,E3,E4,E5,D6,D7,D8,D1,D2,D3,D4,D5,
{4}D6f/A6/E6,
{16}6x/2x,,7/4,,6,5,,7,8,,6/1,,5/3,,2,,1/3,,4,5,,6,5,,3/8,,2/5,,
{4}1-5[16:1],7-4[16:1],
{16}2-5[16:1],,,6-1[16:1],,,3b,,4-7[16:1],,,8-3[16:1],,,5b,,
{16}6,7,8,1,6x/2x-7[8:1],3,4-8[8:1],5,6-1[8:1],,,,,,
{16}3,,3,4,3,,2/5,,4/6,,7,,8,,1/6,,6,5,,3,4,,7/5,,1/6,,
{16}2,,1,,3/8,,3,4,,6,5,,2/4,,8/3,,
{8}7b/B3/B4,5b/B1/E2,3b/B8/B7,1b/B5/E6,
{16}2,3,4,5,8,7,6,5,
{16}4/3,,2p4[4:1],,1/6,,2/5,6,7,8,1,,
{16}3x/C,,4/5,,
{16}5/6,,7q5[4:1],,8/3,,7/4,3,2,1,8,,
{16}6x/C,,5/4,,
{4}8-4[16:1],2-5[16:1],
{16}7-4[16:1],,,3-8[16:1],,,6b,,5-2[16:1],,,1-6[16:1],,,4b,,
{16}3,2,1,8,7,6,4/5,,
{2}4-7[8:1]/5-2[8:1],
{16}8,1,2,3,4,5,6,7,
{16}E5,E1,E4,E8,E3,E7,E2,E6,1,8,7,6,5,4,3,2,1bx,,
{16}6,5,7,E4,E3,E2,E1/5,,3,4,2,E6,E7,E8,E1/4,,
{16}8,7,6,5,
{24}E2,E1,E8,E7,E6,E5,E4,E3,E2,
{8}E1/C,,
{16}7,8,7,8,6,5,6,5,1,3,4,2,5,3,6,4,
{16}1,2,1,2,4,3,4,3,7,5,6,8,5,1,4,2,
{16}3/5,,6,,6,,2/6,3/7,4/8,,4,,4,,3/7,2/6,1/5,,6/2,7/3,8/4,,3/7,2/6,1/5,,6/2,7/3,8/4,,3/7,2/6,
{16}1x-5[16:11]/5,,1-4[16:5],2,3,,1-6[16:3]*-6[16:3],8,7,,1x-5b[16:1],,1x,,1x,,
{16}8x-4[16:11],,8-5[16:5],7,6,,8-3[16:3]*-3[16:3],1,2,,8x-4b[16:1],,8x,,8x,,
{16}1x,8,7,6,
{24}1b,8,7,6,5,4,
{16}8x,1,2,3,
{24}8b,1,2,3,4,5,
{16}3/6,,7,5,6,,2,4,3,,8,1,8,,7/2,,
{16}3x,2,1,8,3x,4,5,6,
{24}2b,1,8,7,6,5,
{16}8b/4b,7/3,6/2,,
{16}6x,7,8,1,6x,5,4,3,
{24}7b,8,1,2,3,4,
{16}1b/5b,2/6,3/7,,
{16}8,4,8,4,1,5,1,5,2,6,2,6,
{24}2,1,8,7,6,5,
{8}4bx-7[16:1]/8bx-3[16:1],,,6bx/2bxs6b[8:1],,,,
{8}4bx/8bx,2bx/6bx,,,3bh[8:9]/8-6-4v7-5-2b[8:7],
{1},
{16},,
{24}6,5,6,5,
{16}7,8,7,
{48},
{8}6bx/1xV35v2-4-7b[4:5],,,6bxh[8:9],
{1},
{4},
{16}5,4,5,,
{8}6/4b,7,8,1,3/5,2,1,8,4/7b,8,1,2,3bv8[8:1]/5bv8[8:1],2/6,3b/5b,,
{32}8xb,7,6,5,8xb,1,2,3,8xb,7,6,5,8xb,1,2,3,8xb-3-6-1[8:2],7,6,5,4,3,2,1,8b/4b,,,,,,,,
{16}5x,5x,1x,1x,6x,6x,2x,2x,
{24}6,5,4,3,2,1,
{32}8/6x-2b[16:1],5,4,3,2,1,8,7,6xb,,,,
{8}3h[8:1],5,6h[8:1],4,3h[8:1],5,6h[8:1],4,3h[8:1],5,6h[8:1],3,2-4-1b[8:2],4-7[8:1]*-7[8:1],2,
E
