&title=电动车
&artist=电动车
&first=0
&des=不要乱停车
&clock_count=60
&lv_5=电动车
&inote_5=(110)
{1},,
{384},
(768)
{384},,,,,,,,,,,,,,,,,,,,,,,,,,,,,,,,,,,,,,,,,,,,,,,,,,,,,,,,,,,,,,,,,,,,,,,,,,,,,,,,,,,,,,,,,,,,,,,,,,,,,,,,,,,,,,,,,,,,,,,,,,,,,,,,,,,,,,,,,,,,,,,,,,,,,,,,,,,,,,,,,,,,,,,,,,,,,,,,,,,,,,,,,,,,,,,,,,,,,,,,,,,,,,,,,,,,,,,,,,,,,,,,,,,,,,,,,,,,,,,,,,,,,,,,,,,,,,,,,,,,,,,,,,,,,,,,,,,,,,,,,,,,,,,,,,,,,,,,,,,,,,,,,,,,,,,,,,,,,,,,,,,,,,,,,,,,,,,,,,,,,,,,,,,,,,,,,,,,,,,,,,,,,,,,,,,,,,,,,,,,,,,,,,,,,,,,,,,,,,,,,,,,,,,,,,,,,,,,,,,,,,,,,,,,,,,,,,,,,,,,,,,,,,,,,,,,,,,,,,,,,,,,,,,,,,,,,,,,,,,,,,,,,,,,,,,,,,,,,,,,,,,,,,,,,,,,,,,,,,,,,,,,,,,,,,,,,,,,,,,,,,,,,,,,,,,,,,,,,,,,,,,,,,,,,,,,,,,,,,,,,,,,,,,,,,,,,,,,,,,,,,,,,,,,,,,,,,,,,,,,,,,,,,,,,,,,,,,,,,,,,,,,,,,,,,,,,,,,,,,,,,,,,,,,,,,,,,,,,,,,,,,,,,,,,,,,,,,,,,,,,,,,,,,,,,,,,,,,,,,,,,,,,,,,,,,,,,,,,,,,,,,,,,,,,,,,,,,,,,,,,,,,,,,,,,,,,,,,,,,,,,,,,,,,,,,,,,,,,,,,,,,,,,,,,,,,,,,,,,,,,,,,,,,,,,,,,,,,,,,,,,,,,,,,,,,,,,,,,,,,,,,,,,,,,,,,,,,,,,,,,,,,,,,,,,,,,,,,,,,,,,,,,,,,,,,,,,,,,,,,,,,,,,,,,,,,,,,,,,,,,,,,,,,,,,,,,,,,,,,,,,,,,,,,,,,,,,,,,,,,,,,,,,,,,,,,,,,,,,,,,,,,,,,,,,,,,,,,,,,,,,,,,,,,,,,,,,,,,,,,,,,,,,,,,,,,,,,,,,,,,,,,,,,,,,,,,,,,,,,,,,,,,,,,,,,,,,,,,,,,,,,,,,,,,,,,,,,,,,,,,,,,,,,,,,,,,,,,,,,,,,,,,,,,,,,,,,,,,,,,,,,,,,,,,,,,,,,,,,,,,,,,,,,,,,,,,,,,,,,,,,,,,,,,,,,,,,,,,,,,,,,,,,,,,,,,,,,,,,,,,,,,,,,,,,,,,,,,,,,,,,,,,,,,,,,,,,,,,,,,,,,,,,,,,,,,,,,,,,,,,,,,,,,,,,,,,,,,,,,,,,,,,,,,,,,,,,,,,,,,,,,,,,,,,,,,,,,,,,,,,,,,,,,,,,,,,,,,,,,,,,,,,,,,,,,,,,,,,,,,,,,,,,,,,,,,,,,,,,,,,,,,,,,,,,,,,,,,,,,,,,,,,,,,,,,,,,,,,,,,,,,,,,,,,,,,,,,,,,,,,,,,,,,,,,,,,,,,,,,,,,,,,,,,,,,,,,,,,,,,,,,,,,,,,,,,,,,,,,,,,,,,,,,,,,,,C,,
(384){384},,,,,,,,,,,,,,,,,,,,,,,,,,,,,,,,,,,,,,,,,,,,,,,,,,,,,,,,,,,,,,,,,,,,,,,,,,,,,,,,,,,,,,,,,,,,,,,,,,,,,,,,,,,,,,,,,,,,,,,,,,,,,,,,,,,,,,,,,,,,,,,,,,,,,,,,,,,,,,,,,,,,,,,,,,,,,,,,,,,,,,,,,,,,,,,,,,,,,,,,,,,,,,,,,,,,,,,,,,,,,,,,,,,,,,,,,,,,,,,,,,,,,,,,,,,,,,,,,,,,,,,,,,,,,,,,,,,,,,,,,,,,,,,,,,,,,,,,,,,,,,,,,,,,,,,,,,,,,,,,,,,,,,,,,,,,,,,,,,,,,,,,,,,,,,,,,,,,,,,,,,,,,,,,,,,,,,,,,,,,,,,,,,,,,,,,,,,,,,,,,,,,,,,,,,,,,,,,,,,,,,,,,,,,,,,,,,,,,,,,,,,,,,,,,,,,,,,,,,,,,,,,,,,,,,,,,,,,,,,,,,,,,,,,,,,,,,,,,,,,,,,,,,,,,,,,,,,,,,,,,,,,,,,,,,,,,,,,,,,,,,,,,,,,,,,,,,,,,,,,,,,,,,,,,,,,,,,,,,,,,,,,,,,,,,,,,
(180)
{32}
2x,3,4h[32:1],,6x,5,4h[32:1],,
2x,3,4h[32:1],,6x,5,4h[32:1],,
2x,3,4h[32:1],,6x,5,4h[32:1],,
2x,3,4h[32:1],,6x,5,4h[32:1],,
2x,3,4h[32:1],,6x,5,4h[32:1],,
2x,3,4h[32:1],,6x,5,4h[32:1],,
2x,3,4h[32:1],,6x,5,4h[32:1],,
2x,3,4h[32:1],,6x,5,4h[32:1],,
2x,3,4h[32:1],,6x,5,4h[32:1],,
2x,3,4h[32:1],,6x,5,4h[32:1],,
2x,3,4h[32:1],,6x,5,4h[32:1],,
2x,3,4h[32:1],,6x,5,4h[32:1],,
2x,3,4h[32:1],,6x,5,4h[32:1],,
2x,3,4h[32:1],,6x,5,4h[32:1],,
2x,3,4h[32:1],,6x,5,4h[32:1],,
2x,3,4,,
(100)
{64}1b,2b,3b,4b,,,,,
1b,2b,3b,4b,,,,,
1b,2b,3b,4b,,,,,
1b,2b,3b,4b,,,,,
1b,2b,3b,4b,,,,,1b,2b,3b,4b,,,,,1b,2b,3b,4b,,,,,
1b,2b,3b,4b,,,,,
1b,2b,3b,4b,,,,,
1b,2b,3b,4b,,,,,
1b,2b,3b,4b,,,,,
1b,2b,3b,4b,,,,,
1b,2b,3b,4b,,,,,
1b,2b,3b,4b,,,,,
1b,2b,3b,4b,,,,,
1b,2b,,,
(100)
{32}8bx,7,6,5,4,3,2,1,8x/B3/E4f,7,6,5,4,3,2,1,8x/Cf,7,6,5,4,3,2,1,8x/B3f/E4,7,6,5,4,3,2,1,8x/B1f/B8,7,6,5,4,3,2,1,8x/Cf,7,6,5,4,3,2,1,8x/B3f/E4,7,6,5,4,3,2,1,8x/Cf,7,6,5,4,3,2,1,
(250)
{24}6,,,5,,,4,,,3,,,2,,1,,8,,7,,6,,5,,
{48}4,,,3,,,2,,,1,,,8,,,7,,,6,,,5,,,4,,3,,2,,1,,8,,7,,6,,5,,4,,3,,2,,1,,
{32}8,7,6,5,4,3,2,1,8,7,6,5,4,3,2,1,,,,,,,,,,,
{24}6,,,5,,,4,,,3,,,2,,1,,8,,7,,6,,5,,
{48}4,,,3,,,2,,,1,,,8,,,7,,,6,,,5,,,4,,3,,2,,1,,8,,7,,6,,5,,4,,3,,2,,1,,
{32}8,7,6,5,4,3,2,1,8,7,6,5,4,3,2,1,,,,,,
(115)
{96}2bx,3hb[96:11]/4hb[96:11],,,,,,,,,,,,,,,,,,,,,,,,
{96}3bx,2hb[96:11]/4hb[96:11],,,,,,,,,,,,,,,,,,,,,,,,
{96}3bx,2hb[96:11]/4hb[96:11],,,,,,,,,,,,,,,,,,,,,,,,
{96}4bx,2hb[96:11]/3hb[96:11],,,,,,,,,,,,,,,,,,,,,,,,
{96}2bx,3hb[96:11]/4hb[96:11],,,,,,,,,,,,,,,,,,,,,,,,
{96}3bx,2hb[96:11]/4hb[96:11],,,,,,,,,,,,,,,,,,,,,,,,
{96}3bx,2hb[96:11]/4hb[96:11],,,,,,,,,,,,,,,,,,,,,,,,
{96}4bx,2hb[96:11]/3hb[96:11],,,,,,,,,,,,,,,,,,,,,,,,
(140)
{32}
5xh[64:1],5xh[64:1],5xh[64:1],5xh[64:1],
5xh[64:1],5xh[64:1],5xh[64:1],5xh[64:1],
5xh[64:1],5xh[64:1],5xh[64:1],5xh[64:1],
5xh[64:1],5xh[64:1],5xh[64:1],5xh[64:1],
5xh[64:1]/1xhb[64:1],1xhb[64:1],1xhb[64:1],1xhb[64:1],
1xhb[64:1],1xhb[64:1],1xhb[64:1],1xhb[64:1],
1xhb[64:1],1xhb[64:1],1xhb[64:1],1xhb[64:1],
1xhb[64:1],1xhb[64:1],1xhb[64:1],1xhb[64:1],
5xh[64:1],5xh[64:1],5xh[64:1],5xh[64:1],
5xh[64:1],5xh[64:1],5xh[64:1],5xh[64:1],
5xh[64:1],5xh[64:1],5xh[64:1],5xh[64:1],
5xh[64:1],5xh[64:1],5xh[64:1],5xh[64:1],
5xh[64:1]/1xhb[64:1],1xhb[64:1],1xhb[64:1],1xhb[64:1],
1xhb[64:1],1xhb[64:1],1xhb[64:1],1xhb[64:1],
1xhb[64:1],1xhb[64:1],1xhb[64:1],1xhb[64:1],
1xhb[64:1],1xhb[64:1],
5xh[64:1],5xh[64:1],5xh[64:1],5xh[64:1],
5xh[64:1],5xh[64:1],5xh[64:1],5xh[64:1],
5xh[64:1],5xh[64:1],5xh[64:1],5xh[64:1],
5xh[64:1],5xh[64:1],5xh[64:1],5xh[64:1],
5xh[64:1]/1xhb[64:1],1xhb[64:1],1xhb[64:1],1xhb[64:1],
1xhb[64:1],1xhb[64:1],1xhb[64:1],1xhb[64:1],
1xhb[64:1],1xhb[64:1],1xhb[64:1],1xhb[64:1],
1xhb[64:1],1xhb[64:1],1xhb[64:1],1xhb[64:1],
5xh[64:1],5xh[64:1],5xh[64:1],5xh[64:1],
5xh[64:1],5xh[64:1],5xh[64:1],5xh[64:1],
5xh[64:1],5xh[64:1],5xh[64:1],5xh[64:1],
5xh[64:1],5xh[64:1],5xh[64:1],5xh[64:1],
5xh[64:1]/1xhb[64:1],1xhb[64:1],1xhb[64:1],1xhb[64:1],
1xhb[64:1],1xhb[64:1],1xhb[64:1],1xhb[64:1],,
A1/A2/A3/A4/A5/A6/A7/A8/D1/D2/D3/D4/D5/D6/D7/D8/B1/B2/B3/B4/B5/B6/B7/B8/Cf,
