&title=Testify
&artist=void
&first=0
&des=luvlily
&lv_5=13+
&inote_5=(178){1},,,
{8}2h[2:1]/8,,,,{8}4h[2:1],,,,
{8}5h[2:1],,,,7q1[1:1],,,{32},,,
{8}1,,2,,3,,4,,{32}5>7[4:3],,,,,
{8},,,,,,,,
{8},6h[4:1],,4h[4:1],,3h[4:1],,
{8}1h[2:1],,,{16}8,7,6h[4:1],,,,
{8}8h[4:1],,{24}6,5,4,3^6[4:1],,,
{4},,,
{8}1b/8h[4:1],,2,8,2h[4:1]/1b,,4,2,
{8}3b/5h[4:1],,4,6,7h[4:1]/5b,,1,2,
{8}8b/3h[4:1],,6,5,7h[4:1]/8b,,3,4,
{8}1b/2h[4:1],,6,4,7h[4:1]/8b,,3,5,
{8}1b<1[1:3]/2,,,,,,,,
{8},,,,,,,,
{8},,2,2,,,4,4,
{8},,6,6,,,8,8,
{8}1/8h[4:1],1,2,8,7/1h[4:1],7,8,2,
{8}3h[4:1]/1,1,8,3,7h[4:1]/1,1,2,7,
{8}8/3h[4:1],8,7,6,5h[4:1]/3,3,2,1,
{8}7/8h[4:1],7,6,5,4h[4:1]/2,2,1,8,
{8}6-8[8:1]/8,6,1,2,3-1[8:1]/1,3,8,7,
{8}5-8[8:1]/8,5,1,2,4-1[8:1]/1,4,8,7,
{8}5-8[8:1]/8,1,2,3,4-1[8:1]/8,7,6,5,
{8}4-8[8:1]/8,1,2,3,4-8[8:1]/8,7,6,5,
{16}1<4[16:3],2,3,4q6[8:3],1b,,,,2,,,,3>6[4:1],,,,
{16}6^3[8:1],,,,1-5[8:1],,,,2p8[8:3],,,,5,,,,
{16}7^5[8:1]*-4[8:1],,,,7,,,,2^5[8:1]*-6[8:1],,,,2,,,,
{16}8,,,,7,1,7,1,6p4[32:10],,,,6,,,,
{8}3-8[8:1]*^1[8:1],,3,,6pp8[8:1]*-1[8:1],,6,,
{8}7^4[8:1],,8p4[8:1],,1-5[8:1],,2p8[8:3],,
{8}5>5[2:1],,,,,,1-5[8:1],,
{8}1q3[8:3]*p7[8:3],,,,,,,,
{8}7<2[4:1],,2q6[8:1],,1<4[4:1],,1q7[16:3],,
{8}1,,2-5[8:1]*pp4[8:1],,2,,{16}3,6,3,6,
{8}1p7[16:5],,1,,5-1[8:1],,5-2[8:1]*-8[8:1],,
{8}5p3[32:10]*q7[32:10],,,,,,1^4[8:1],4^7[8:1],
{8}1<4[4:1],,1q3[32:10],,1,,8-4[8:1],,
{8}8,,{16}1,5,1,5,26,,,,{8}8^5[8:1],5^2[8:1],
{8}8>5[4:1],,8p6[32:10],,8,,,,
{8}1b/4b,1b/4b,,5b/8b,5b/8b,,{16}2,1,3,8,
{8}4V26[4:1]/7,,,5V37[4:1],,,6V48[4:1],,
{8},7V51[4:1],,,8V62[4:1],,,,
{8}3V51[4:1],,,2V48[4:1],,,1V37[4:1],,
{8},8V26[4:1],,,{16}7,8,1,2,3,4,5,6,
{8}7,,,3/6,,,
{12}6,5,6,4,5,4,6,5,7,3,4,2,7,8,6,
{16}1,5,1,5,2,6,2,6,3,7,3,7,4,8,4,8,{24}5,6,7,8,1,2,{24}36,7,8,1,2,3,
{8}4-8[8:1],,,,
{8}1b-4[16:3],,,5b-8[16:3],
{8},,2b-6[8:1],,7b-2[16:3],,,3b-6[16:3],
{8},,8b-4[8:1],,1b-5[16:3],,,6bp4[8:11],
{8},,,,,,,,
{8},,,,8b-3[16:3],,,4b-7[16:3],
{8},,2b-6[8:1],,7b-2[16:3],,,3b-6[16:3],
{8},,8b-4[8:1],,1b-5[16:3],,,6b-2[16:3],
{8},,3bp1[32:26],,,,,,
{8},,,,
{8}6-1[8:1]/8,6,1,2,3-8[8:1]/1,3,8,7,
{8}5-8[8:1]/8,5,2,3,4-1[8:1]/8,4,7,6,
{8}5-8[8:1]/8,1,2,3,4-1[8:1]/8,7,6,5,
{8}4-8[8:1]/8,1,2,3,4-8[8:1]/8,7,6,5,
{16}4/8,,1,,2,4,2,,35,,6,,7,5,7,,
{16}48,,7,,6,4,6,,35,,2,,1,4,1,,
{16}25,,6h[4:1],,2,3,4,,37,,2h[4:1],,6,5,4,,
{16}15,,27,,1,28,37,46,5-1[8:1],,,,,,,,
{16}8h[8:1],,1,8h[8:1],,7,8,,1h[8:1],,8,1h[8:1],,2,1,,
{16}8h[8:1],,1,7h[8:1],,6,7,,1h[8:1],,3,1,4,2,5,3,
{12}6,5,7,2,1,3,4,2,5,8,6,1,
{16}8,2,8,2,7,3,7,3,6,4,7,5,8,1,7,2,
{16}6h[8:1],,8,7h[8:1],,6,7,,3h[8:1],,1,2h[8:1],,3,2,,
{16}6h[8:1],,8,7h[8:1],,6,7,,4h[8:1],,2,4,1,3,8,2,
{32}7h[16:3],,,,,,6,,6h[16:3],,,,,,
{32}5,,5h[4:1],,,,,,,,1,,5,,2,,6,,
{32}3,4,5h[16:3],,,,,,1,2,3h[16:3],,,,,,
{32}7,8,1h[16:3],,{16},,7,1,6,2,
{16}5h[8:1],,8,7h[8:1],,6,7,,4h[8:1],,1,2h[8:1],,3,2,,
{16}5h[8:1],,8,7h[8:1],,6,7,,4h[8:1],,1,2h[8:1],,3,2,,
{16}58,,7,,14,,2,,{24}3,4,5,6,7,8,{24}41,5,6,7,8,1,
{2}2<5[24:5],
{24}4,3,2,1,8,7,6,5,4,3,2,1,
{12}8p6[2:1],,,,,,,,,,,,
{12}1,8,1,7,8,7,2,1,3,6,5,7,
{12}1,4,4,8,5,5,3,1,1,6,8,8,
{12}1,1,1,3,3,3,5,5,5,7,,,
{16}6,5,7,5,,,3,4,1,4,,,2,4,2,4,
{16}3,5,3,5,4,6,4,6,3,7,3,7,2,8,2,8,
{12}3,4,2,6,5,8,2,1,4,5,3,7,
{16}1,2,3,4,6,7,8,1,{24}3,4,5,6,7,8,14,5,6,7,8,1,
{16}2,,4,5,,7,8,,5,4,,2,1,,6,8,
{16},2,4,,7,5,,,8,7,6,5,3,2,1,8,
{12}6,6,6,8,8,8,1,1,1,3,3,3,
{16}8,7,6,5,3,2,1,8,{24}6,5,4,3,2,1,85,4,3,2,1,8,
{16}4,5,6,7,8,,5,6,7,8,1,,8,7,6,5,
{12}2,4,3,7,5,6,2,1,3,7,8,6,
{16}1,7,1,7,2,8,2,8,4,6,4,6,3,5,3,5,
{16}2,4,3,4,2,5,4,5,{32}2,3,4,5,6,7,8,1,2,3,4,5,6,7,8,1,
{16}4bV26[4:1]/2b,,,,{24}8,7,6,{16}5V37[4:1],,,,{24}1,8,7,{16}6v4[8:1],,,,
{16}1V37[4:1],,,,{24}5,6,7,{16}8V26[4:1],,,,{24}4,5,6,{16}7v1[8:1],,,,
{16}4V26[4:1],,,,{24}8,7,6,{16}5V37[4:1],,,,{24}1,8,7,{16}6-2[8:1],,,,
{16}3V51[4:1],,,,{24}1,8,7,{16}6,,,,2,8,2,8,1^4[32:3],,
{16}3b/7b,,1,,{32}5,6,7,8,1^6[32:3],,,,{16},,1,,{32}5,4,3,2,1^4[32:3],,,,
{16},,1,,{32}5,6,7,8,1^6[32:3],,,,{16},,1,,{32}5,4,3,2,1,,,,
{32}5,6,7h[32:5],,,,,,3,4,5h[32:5],,,,,,
{32}1,2,3h[32:3],,,,,,1,,5,,2,,6,,
{32}3,4,5h[16:3],,,,,,1,8,7h[16:3],,,,,,
{32}3,2,1h[16:3],,{16},,7,1,6,2,
{16}5h[8:1],,1,7h[8:1],,6,7,,8h[8:1],,4,2h[8:1],,3,2,,
{16}1h[8:1],,5,7h[8:1],,6,7,5,8,4,7,2,6,1,7,8,
{16}6,,2,4,3,5,1,8,2,1,3,6,5,7,1,8,
{16}1,,2,5,3,6,4,7,1,4,2,5,3,6,4,7,
{16}1h[8:1],,{24}4b,3,2,1,8,7,6,5,4h[6:1],3b,2,1,8,7,6,5,4,3,26,1,8,7,6,5h[6:1],4b,3,2,1,8,7,6,5,4h[6:1],3b,2,1,8,7,6,5,4,3,2b/6b,,,
{24}8,7,6,1,2,3,7,6,5,2,3,4,8,7,6,2,3,4,7,6,5,1,2,3,
{12}8,5,7,1,4,3,1,5,7,8,4,2,
{16}1bp8[4:22],,,,,,,,,,,,,,,,
{1},,,,,
{8}5b/8b,5b/8b,,1b/4b,1b/4b,,6b/8b,5b/7b,
{8},1b/3b,2b/4b,,3h[4:1]/6h[4:1],,,,
{12}18,18,18,{24}1b/8b,27,36,45,,,{16}3,4,3,7,5,6,4,6,
{16}1,5,2,4,3,1,4,8,{12}3,7,7,2,6,6,
{24}1b/4,2,3,4,,,8b/5,7,6,5,,,1b/3,2,3,4,,,8b/6,7,6,5,,,
{16}7,8,7,3,1,2,8,2,
{16}5,1,6,8,7,5,8,4,
{24}8b,2b,6b,4b,5b,3b,8b,,,,,,{16}4,8,3,1,2,4,1,5,
{12}2,2,2,4,4,4,5,5,5,7,7,7,
{24}1,6,1,6,1,6,{16}3,7,4,7,{24}2,3,4,8,7,6,{16}2,4,3,7,{24}4,6,4,6,4,6,{24}7p5[8:3],3,{24}7,3,,,{16},,,,,,,,
{32}2,3,4,5,6,7,8,1,2b/6b,,,,4b/8b,,,,
{32}7,6,5,4,3,2,1,8,7b/3b,,,,5b/1b,,,,
{32}8,7,6,5,4,3,2,1,8b/4b,,,,3b/5b,,,,
{32}1,2,3,4,5,6,7,8,1b/5b,,,,6b/4b,,,,
{48}3b/7b,2b/6b,1b/5b,4b/8b-4[1:2],,,
{8},,,,,
{8},,,,,,,,,,,,,,,E
