&title=ねぇねぇねぇ
&artist=ピノキオピー
&first=-0.012
&lv_5=14.0
&des=mmfc
&inote_5=(145)
{8},,B7h[2:15],,,,,,,,,,,,,,,,,,,,,,,,,,,,,,B2h[4:15],,,,,,,,,,,,,,,,Ch[4:7],,,,,,,,,,,,,,,,
{16}1/6,,3/8,,2/7,,,4,5,,3/6,,2/7,,,,
{16}4/7,,2/5,,3/6,,,1,8,,2/7,,3/6,,A8/B8/E8/A1/B1/E2,,
{16}A6/B6/E7/A3/B3/E3,,3/8,,1/6,,,4,5,,3/6,,2/7,,,,
{16}1/6,,3/8,,2/7,,B2/B3/E3,,B6/B7/E7,,,,1/8,,C,,
{16}4/7,,2/5,,3/6,,,1,8,,2/7,,3/6,,,,
{16}1/6,,3/8,,2/7,,,4,5,,3/6,,2/7,,A5/B5/E6/A4/B4/E4,,
{16}A7/B7/E7/A2/B2/E3,,2/5,,4/7,,,1,8,,2/7,,3/6,,,4,
{16}5,,3/6,,2b/7b,,,2b/7b,,,2b/7b,,1,8,1,8,C,,,,
{16},,8,5,8h[8:1],,6h[8:1],,7,5,7,5,7,,6,,8,,7,,6,,5,,,,B7/B6/C,,C/B2/B3,,,,
{16},,1,3,1h[8:1],,3h[8:1],,2,4,2,4,2,,3,,1,,2,,3,,4,,C,,C,C,C,,,,
{16},,8,5,8h[8:1],,6h[8:1],,7,5,7,5,7,,6,,8,,7,,6,,5,,,,B7/B6/C,,C/B2/B3,,,,
{16},,1/5,,2/6,,3/7,,4/8,,4/8,,3/7,,2/6,,1h[16:7]/5h[16:7],,,,,,,,
{16}1,5,2,6,3/7,3/7,3/7,3/7,
{16}3,4,,4,3,,3h[16:6],,7b,,7b,,7b,,,,
{16}2,,2,3,2,,2h[16:6],,6b,,6b,7b,6b,,,,
{16}2,1,,1,2,,2h[16:6],,6b,5b,6b,,6b,,,,
{16}4,2,4h[8:1],,
{24}1h[12:1],,3,,1h[24:10],,7b,,8b,,7b,,8b,,,,,,
{16}1,,1,1,5b,1,1,,1,,1,1,5b,1,1,,1,,1,1,5b,1,1,,1/5,,3/7,,1/5,,,,
{16}6/2,,4,4,4,,5/3,,6/2,,7/1,,6-8[16:1]/2-4[16:1],,5/3,,6-4[16:1]/2-8[16:1],,,,6-8[16:1]/2-4[16:1],,,,6/2,,,,8p4[8:1]/4p8[8:1],,,,
{16}8>4[8:1]/4<8[8:1],,,,8p4[8:1]/4p8[8:1],,,,4/8,,,,2/6,,3/7,,2/6,,2/6,,4>1[16:1]/8<5[16:1],,2/6,,4/8,,,,2/6,,3/7,,3/7,,2/6,,1/5,,3/7,,1/5,,3/7,,2pp5[2:1]/6pp1[2:1],,3/7,,2/6,,,,,,,,,,,,8/4,,6/2,,8/4,,8/4,,7/3,,8/4,,8/4,,7/3,,6/2,,5/1,,7/3,,5/1,,5/1,,6/2,,7/3,,,,1/5,,3/7,,1/5,,1/5,,2/6,,1/5,,1/5,,2/6,,3/7,,4/8,,7/3,,3,4,2,,6,5,7,,8,1,7,2,6,3,
{16}8p4[8:1]/4p8[8:1],,,,8>4[8:1]/4<8[8:1],,,,8/4,,,,5/3,,7/1,,6/4,,8/2,,3-1[16:1]/5-7[16:1],,7/1,,3/5,,,,1/5,,3/7,,4/6,,2/8,,3/7,,1/5,,6/8,,2/4,,3/5,,4/6,,5/7,,4/6,,3/5,,2/4,,3/5,,,,4/6,,2/8,,3/5,3/5,,4/6,4/6,,2/8,,3/5,,2/6,,8/4,,6/2,,7/1,7/1,,8/2,2/8,,4/6,,1/7,,,,6/1,,7/2,,8/3,,7/4,,2/1,,8/3,,6/5,,4/3,,7/5,,4/2,,1,8,2,7,3,6,4,5,4,,,,8-5[8:1]/2h[4:1],,,,8[8:1],,,,8-3[8:1]/6h[4:1],,,,8,,,,8-5[8:1]/2h[4:1],,,,8,,1,,1,,1,,{32}5/1,6/2,7/3,8/4,,,,,
{16}B8/B7/E8/B4/B3/E4,,,,
{16}6/2,,,,C,,6,3x,3x,,6,,C,,8h[4:1],,6,,1h[4:1],,3,,8,,8,,,,C,,1,,1,,6x,6x,6x,,1,,8,,1,,C
{16}C,,1h[4:1],,3,,8h[4:1],,6,,1,,1,,,,C,,,,
{16},,1,4,1h[8:1],,3h[8:1],,2,4,2,4,2,,3,,1,,2,,3,,4,,,,B2/B3/C,,C/B7/B6,,,,
{16},,8,6,8h[8:1],,6h[8:1],,7,5,7,5,7,,6,,8,,7,,6,,5,,B7h[16:2],,B2h[8:1],,,,,,
{16},,1,4,1h[8:1],,3h[8:1],,2,4,2,4,2,,3,,1,,2,,3,,4,,,,B2/B3/C,,C/B7/B6,,,,
{16},,8/4,,7/3,,6/2,,5/1,,5/1,,6/2,,7/3,,8h[16:7]/4h[16:7],,,,,,,,
{16}8,4,7,3,6/2,6/2,6/2,6/2,
{16}6,5,,5,6,,6h[16:6],,2b,,2b,,2b,,,,
{16}7,,7,6,7,,7h[16:6],,3b,,3b,2b,3b,,,,
{16}7,8,,8,7,,7h[16:6],,3b,4b,3b,,3b,,,,
{16}5,7,5h[8:1],,
{24}8h[12:1],,6,,8h[24:10],,2b,,1b,,2b,,1b,,,,,,
{16}8,,8,8,4b,8,8,,8,,8,8,4b,8,8,,8,,8,8,4b,8,8,,8/4,,6/2,,8/4,,,,
{16}3/7,,5,5,5,,4/6,,3/7,,2/8,,3-1[16:1]/7-5[16:1],,4/6,,3-5[16:1]/7-1[16:1],,,,3-1[16:1]/7-5[16:1],,,,3/7,,,,1p5[8:1]/5p1[8:1],2/6,3/7,4/8,
{16}1>5[8:1]/5<1[8:1],,,,1p5[8:1]/5p1[8:1],,,,5/1,,,,7/3,,6/2,,7/3,,7/3,,5<8[16:1]/1>4[16:1],,7/3,,5/1,,,,7/3,,6/2,,6/2,,7/3,,8/4,,6/2,,8/4,,6/2,,7qq4[2:1]/3qq8[2:1],,6/2,,7/3,,,,,,,,,,,,1/5,,3/7,,1/5,2/6,3/7,,4/8,,4/8,,3/7,2/6,1/5,,4/8,,4/8,,1/5,2/6,3/7,,4/8,,3/7,,2/6,,,,1/5,,3/7,,1/5,2/6,3/7,,4/8,,4/8,,3/7,2/6,1/5,,1/5,,2/6,,3/7,3/7,3/7,3/7,3/7,,5,5,5,,4,6,2,8,3,7,
{16}1q5[8:1]/5q1[8:1],,,,1<5[8:1]/5>1[8:1],,,,1/5,,,,4/6,,2/8,,3/5,,1/7,,6-8[16:1]/4-2[16:1],,2/8,,6/4,,,,8/4,,6/2,,5/3,,7/1,,6/2,,8/4,,3/1,,7/5,,6/4,,5/3,,4/2,,5/3,,6/4,,7/5,,6/4,,,,5/3,,7/1,,6/4,6/4,,3/5,5/3,,7/1,,6/4,,7/3,2/6,1/5,,3/7,,2/8,2/8,,7/1,7/1,,5/3,,8/2,,,,3/8,,2/7,,1/6,,2/5,,7/8,,1/6,,3/4,,5/6,,2/4,,5/7,,8,1,7,2,6,3,5,4,5,,,,1-4[8:1]/7h[4:1],,,,1[8:1],,,,1-6[8:1]/3h[4:1],,,,1,,,,1-4[8:1]/7h[4:1],,,,1,,8,,8,,8,,{32}4/8,3/7,2/6,1/5,,,,,
{16}B1/B2/E2/B5/B6/,,,,
{16}C,,8h[8:3]/7,,6,,5,,6-3[8:1]*-3[8:1],,7,7,,,,,
{16}C,,1h[8:3]/2,,3,,4,,3,,2,2,2/3,,6/7,,
{16}2/3,,6/7,,2/3,,6/7,,8/1,,4/5,,8/1,,4/5,,2/3,,6/7,,2/3,,6/7,,5/4,,1/8,,5/4,,1/8,,
{16}C,,2/6,,3/7,,4/8,,1/5,,2/6,,1/5,,4/8,,3hb[8:1]/7hb[8:1],,,1hb[8:1]/5hb[8:1],,,3b/7b,,1b/5b,,,,C,,,,
{16}6pp4[4:1]/C,,,,A6,,,,3qq5[4:1]*qq5[4:1],,,,A3,,,,
{16}8,7,6,5,4,3,2,1,8b,,,,
{16}5-8[8:1]/1-4[8:1],,,,
{16}5-2[8:1]/1-6[8:1],,,,5-8[8:1]/1-4[8:1],,,,1/5,,,,3/6,,1/8,,2/7,,5/4,,2-7[16:1]/7-2[16:1],,4/5,,2/7,,,,1/6,,3/4,,5/6,,3/8,,4/6,,3/5,,1/7,,2/8,,3/7,,2/6,,3/7,4,6,2,8,3,5,1,7,,,,5/1,,7/3,,5/1,,5/1,,6/2,,5/1,,5/1,,6/2,,7/3,,8/4,,8/4,,3/7,,2/6,,1/5,,4/8,,,,4/8,,2/6,,4/8,,4/8,,3/7,,4/8,,4/8,,3/7,,2/6,,1/5,,6/2,,2,1,3,,7,8,6,,5,4,6,3,7,2,
{32}5-2[8:1]/1-6[8:1],E2/E6,B2/B6,B3/B7,E4/E8,,,,{16}5-8[8:1]/1-4[8:1],,,,5/1,,,,2/7,,4/5,,3/6,,8/1,,3-6[16:1]/6-3[16:1],,1/8,,3/6,,,,4/7,,2/1,,8/7,,2/5,,1/7,,2/8,,4/6,,3/5,,2/6,,3/7,,2/6,1,7,3,5,2,8,4,6,,,,1/7,,3/5,,2/8,2/8,,1/7,1/7,,3/5,,2/8,,3/7,,5/1,,7/3,,6/4,6/4,,5/3,3/5,,1/7,,4/6,,,,7/4,,6/3,,5/2,,6/1,,3/4,,5/2,,7/8,,1/2,,6/8,,1/3,,4,5,3,6,2,7,1,8,1,,,,8-5[8:1]/2h[4:1],,,,8[8:1],,,,8-3[8:1]/6h[4:1],,,,8,,,,8-5[8:1]/2h[4:1],,,,8,,1,2,3,4,5,6,7,,,,
{16}1-4[8:1]/7h[4:1],,,,1[8:1],,,,1-6[8:1]/3h[4:1],,,,1,,,,1/7h[4:1],,,,1-3[16:1]*-4[16:1],,1-7[16:1]*-6[16:1],,1w5[16:1],,1,,1,,,,
{16}1/6,,3/8,,2/7,,,4,5,,3/6,,2/7,,,,
{16}4/7,,2/5,,3/6,,,1,8,,2/7,,3/6,,A8/B8/E8/A1/B1/E2,,
{16}A6/B6/E7/A3/B3/E3,,3/8,,1/6,,,4,5,,3/6,,2/7,,,,
{16}1/6,,3/8,,2/7,,B2/B3/E3,,B6/B7/E7,,,,1/8,,C,,
{16}4/7,,2/5,,3/6,,,1,8,,2/7,,3/6,,,,
{16}1/6,,3/8,,2/7,,,4,5,,3/6,,2/7,,A5/B5/E6/A4/B4/E4,,
{16}A7/B7/E7/A2/B2/E3,,2/5,,4/7,,,,1/8,,2/7,,3/6,,4/5,,
{16}4/5,,3/6,,2/7,,,2/7,,,2/7,,2/7,,,,C,,,,,,
E
