&title=I'm sorry by kagami
&artist=加藤英美里
&first=0.09
&des=GOOD⭐differ
&lv_7=mad
&inote_5=
&inote_7=(520)
{1},,,,,,,,,,,,
{1},,,,,,,,,,,,
{4}24,5,,75,4,,,,
{4}35,,6,6,5,,26,,1,2,,2,3,,3,,5,,36,6,35,2,6,2,1,,14,,1>4[6:1]/4<7[6:1],,,,
{4}64,,3,3,4,,73,,8,7,,7,6,,6,,4,,63,3,64,7,3,7,8,,8b/5b,,8b-5[6:1]/5b-2[6:1],,,,
{4}14,,2,2,2,,,,7,,4,5,2,4,2,4,A2,,A1,,A8f,,,,3x,4x,2x-7[6:1],,6x,5x,7x-2[6:1],,
{4}5,,7,7,7,,,,2,,5,4,7,5,7,5,A7,,A8,,A1f,,,,
{4}5x-1[6:1]b,,7x-2[6:1]b,,4x-8[6:1]b,,2x-7[6:1]b,,,,,,
{4},,,18,,2,4,,3,5,4,6,3,3,4,4,5,5,6,,6,,3x-7[6:1],,,,6x-2[6:1],,,,
{4}18,,7,4,6,2,2,4,,4,6,,,6,8,8,8,8,
{8}8b,,,8b,,,,8b,,8b,,8b,,,,,,,,,,,,,
{4}B2/B1/E2,B5/B6/E6,B4/B3/E4,B7/B8/E8,Cf,,,,
{4}1b-4b[6:1],,5b-8b[6:1],,2b-7b[6:1],,6b-3b[6:1],,
{4}1bx,,2bx,2bx,2bx,,,,7s3[2:1]/8z4[2:1],,,,1-6[2:1]/2v4[2:1],,,,
{4}5bx,,6bx,6bx,6bx,,,,3,4,3,,2,1,2,,
{4}4bx,,3bx,3bx,3bx,,,,12,12,12,,78,78,78,,
{16}8bx,7bx,,,,,,,8bx/2q5q2b[1:2],7bx,,,,,,,8bx,7bx,,,,,,,8bx,7bx,,,,,,,
{16}8bx,7bx,,,,,,,8bx,7bx,,,,,,,8bx,7bx,6bx,5bx,,,,,,,,,,,,,
{4}8bx,,7bx,7bx,7bx,,,,2s6[2:1]/1z5[2:1],,,,8-3[2:1]/7v5[2:1],,,,
{4}4bx,,3bx,3bx,3bx,,,,6,5,6,,7,8,7,,
{4}5bx,,6bx,6bx,6bx,,,,87,87,87,,21,21,21,,
{16}1bx/6xp4q6[2:3]b,2bx,,,6x,,,,1bx,2bx,,,,,,,1bx,2bx,,,,,,,1bx,2bx,,,
{16},,,,
{4}1bx,1bx,2b,2b,3b,3b,4b,4b,5b-1b[6:1],
