&title=デロデロデロデ
&artist=cosMo@暴走P feat.初音ミク
&first=0
&des=zurii
&lv_7=8+?!
&inote_7=(130),{512},,,,,,,,,,,{4}6,6,6,6,5,5,5,5,4,4,5,5,6,6,65,65,
(140)6b,6,(155)6,6,(170)5b,5,(185)5,5,(200)4b,4,(215)5,5,(230)6b,6,65,56,6b,6,6,6,6b/5b,65,56(75),(230)7b,7,6,6,75,46,75,7/6/5/4,
6b,6,6,6,6b/5b,56,65,65,5b/6b/7b,5/6/7,5/6/7,5/6/7,4b/5b/6b/7b,4/5/6/7,4/5/6/7,4/5/6/7,3b,3,3,3,4b/3b,43,34,34,3b/2b/4b,2/3/4,2/3/4,2/3/4,5b/4b/3b/2b,2/3/5/4,2/3/5/4,2/3/5/4,
5b,5,4,4,6b,6,3,3,5b,5,4,4,6b,6,3,3,5b,5,54,54,6b/5b/4b,4/5/6,3/4/5/6,3/4/5/6,
5b,5,54,54,6b/5b/4b,(210)4/5/6,(190)3/4/5/6,(170)3/4/5/6,(153)5b,54,4/5/6,3/4/5/6,(230)4,45,3/4/5,3/4/5/6,(153)6b,56,7/5/6,4/5/6/7,(230)5,56,4/5/6,7/6/5/4,(153)3b,34,3/4/5,2/3/4/5,(230)4,43,2/3/4,2/3/4/5,(153)1b,18,1/8/2,1/8/2/7,(230)8,81,8/1/7,8/7/1/2,
(153)5b,5,(168)5,5,(183)5b/4b,54,(198)54,54,(213)4b/5b/6b,4/5/6,(220)4/5/6,(230)6/5/4,(240)6/5/4/3,(250)6/5/4/3,(260)6/5/4/3,{256}6/5/4/3,,,,,,,,,,,,,,,,,,,,,,,,,,,,,,,,,,,,,,,,,,,,,,,,,,,,,,,,,,,,,,,,,,,,,,,,,,,{4}
(271)5b,45,4/5/6,3/4/5/6,1,81,1/8/2,1/8/2/7,6b,67,6/7/8,5/6/7/8,32,1/2/3/4,(111)3b/4b/5b/6b,(299)1b,81,1/8/2,1/8/7/2,5,54,4/5/6,3/4/5/6,3b,32,3/2/4,1/2/3/4,6,67,6/7/5,5/6/7/8,(269)6/5-8[57#4:1]/4-1[57#4:1]/3,4/5/6,(239)54,4,(209)5,54,(179)4/5/3,3/4/5/6,(174)6,5,4,3,2,3,4,5,
(87)3b/4b/5b/6b,3/4/5/6,3/4/5/6,3/4/5/6,(137)3b/4b/5b/6b,4/5/6,56,6,(110)6b,6,6,6,(147)6b,56,4/5/6,3/4/5/6,
(154)5b,5,(164)54,54,(174)4b/5b/6b,4/5/6,(184)3/4/5/6,3/4/5/6,(194)1b/7b/8b/2b,1/2/7/8,(204)1/8/2,1/2/8,(214)8b/1b,18,(224)1,1,(234)5b,54,(244)4/5/6,3/4/5/6,(254)7b,76,(264)6/7/8,5/6/7/8,(274)1b,18,1/2/8,1/2/7/8,(284)3b,32,2/3/4,1/2/3/4,
(294){16}B1,B2,B3,B4,B5,B6,B7,B8,B1,B2,B3,B4,B5,B6,B7,B8,B1,B2,B3,B4,B5,B6,B7,B8,B1,B2,B3,B4,B5,B6,B7,B8,B1,B2,B3,B4,B5,B6,B7,B8f,{4},(130)7?>2v4[2:1]*>2v4[2:1]*>2v4[2:1]*>2v4[2:1]*>2v4[2:1]*>2v4[2:1]*>2v4[2:1]*>2v4[2:1],,,(115){512},,{4},(230),
5b,54,4/5/6,3/4/5/6,4b,54,3/4/5,3/4/5/6,6b,76,6/7/8,5/6/7/8,7b,76,5/6/7,5/6/7/8,1b,81,1/2/8,1/2/7/8,8b,81,8/7/1,1/2/7/8,2b,32,1/2/3,1/2/3/4,3b,23,4/3/2,1/2/3/4,
6b,65,5/6/7,4/5/6/7,5b,56,4/5/6,4/5/6/7,6b,65,5/6/7,4/5/6/7,5b,56,4/5/6,4b/5b/6b/7b,6,{16}3b/5/6,3b,3b,3b,3b/5,3b,3b,3b,3b/5/6,3b,3b,3b,3b/6,3b,3b,3b,3b/6/5,3b,3b,{32}3b,3b,3b/5,3b,3b,3b,3b,3b,3b,3b,3b/5/6,3b,3b,,,,,,{4}4,45,3/4/5,3/4/5/6,5,54,4/5/6,3/4/5/6,
1b,81,1/8/7,1/2/7/8,8b,87,1/7/8,1/6/7/8,7b,67,6/7/8,5/6/7/8,6b,65,5/6/7,4/5/6/7,5b,54,4/5/6,3/4/5/6,4b,34,5/4/3,5/4/3/2,3b,23,2/3/4,1/2/3/4,2b,21,1/2/3,1/2/3/8,5b,4,5,4,6b/5b/4b/3b,6/5/4,65,6b,
(130)6,6,6,6,5,5,5,5,4,4,5,5,6,6,65,65,
{8}5,4,5,4,54,45,{4}3/4/5/6,,E
