&title=おべか
&artist=すりぃ; 重音テト; 鏡音レン
&first=0.05
&des=木桶奉承
&lv_5=13+
&inote_5=(175),
{8}24,3,3,,24,3,3,,5,5-7-2[8:2],,2,3,4,4-1[8:1],,4h[8:2],,,,5-8[8:1],,5h[8:2],,,2,2,7,7>2[8:1],,73,
,1x>5[8:2],,5<1[8:2],,1>5[8:2],,5<1[8:2],,B4,B5,6x,6x,3,3,7-3-5[8:1]*-3-1[8:1],,,,2hx[8:2]/4hx[8:1],,,2h[8:2]/4h[8:1],,,,5<2[8:3],3,5,B3/B4,,B3/B4,,
75,6,6,,75,6,6,,4,4-2-7[8:2],,7,6,5,5-8[8:1],,5h[8:2],,,,4-1[8:1],,4h[8:2],,,7,7,2,2<7[8:1],,26,
,8x<4[8:2],,4>8[8:2],,8<4[8:2],,4>8[8:2],,B5,B4,3x,3x,6,6,2-6-4[8:1]*-6-8[8:1],,,,7hx[8:2]/5hx[8:1],,,7h[8:2]/5h[8:1],,,,4>7[8:3],6,4,B6/B5,,B6/B5,,C,,
6,6,1,1,7,2,8,3,1p5[8:1],,2,2,6,6,3>8[8:1],6,3,,7,7,1,1,8pp2[8:1]*qq6[8:1],,8,,,
3,3,E7,E7,,6-4[8:1]/4-2[8:1],,46,,3,5,3-5[8:1]/5-7[8:1],,35,,,4h[8:1],8h[8:1],3h[8:1],7h[8:1],2h[8:1],6h[8:2],,,Ch[8:6]f,B5,B6,B7,B8,B1,,,,,,
2b>5[8:1]/1bq5[8:1],,12,,8-4[8:1]/7-5[8:1],1x,87,,2-8[8:1]/7,3,2/7-4[8:1],6,2-4-8[8:2]/7,1,2b/7,,,6,6>3[8:2],,3>8[8:2],,8<5[8:2],,5w1[8:2],,,,,,12,8,12,3,1-7[8:1],1,2-4[8:1],2,1-6[8:1],1,2-5[8:1],2,1,1<6[8:1],2>5[8:1],1,2b,,
6h[8:2],8,4h[8:2],1,5hb[8:2],8,3h[8:2],1,6,3,6b<3[8:3],4hx[8:1],,4,,,
7b<4[8:1]/8bp4[8:1],,87,,1-5[8:1]/2-4[8:1],8x,12,,7-1[8:1]/2,6,7/2-5[8:1],3,7-5-1[8:2]/2,8,7b/2,,,3,3<6[8:2],,6<1[8:2],,1>4[8:2],,4w8b[8:2],,,,,,87,1,87,6,8-2[8:1],8,7-5[8:1],7,8-3[8:1],8,7-4[8:1],7,8,8>3[8:1],7<4[8:1],8,7b,,
3h[8:2],1,5h[8:2],8,4hb[8:2],1,6h[8:2],1,3,6,3b>6[8:3],5hx[8:1],,5x,5xpp5[8:2]*qq5[8:2],,5b,,
{8},,3x-6[8:1],,2x-7[8:1],,,,1x/5x,2x,3x/7x,4x,5x/1x,B6,B6,,1x<6[8:1],,13,,2x-4[8:1]*-6[8:1],,2,,5h[8:2],,2x-7[8:1],1,2x/5,,15,,
{32}1x/5x,6x,7x,8x,1x,2x,3x,4x,
{8}5x,,6-8[8:1]/4-8[8:1],,46,,72,6,52,6,72,B6/B2,B6/B2,,37,5,37,5,26,4,26,4,6b/A2,6b/E2,6b/B1,6b/B8,6b/E8,6b/A7,
{8}
1x-3-7[8:2],5,1,,5x-7-3[8:2],1,5,,2h[8:2],4,,2h[8:2],4q8[8:1],4,2h[8:2],,,,2-7[8:1],,2/6-3[8:1],,6/1,1,5,5,1s5[8:2],6,1,7x,7x,,3-5[8:1]/6-4[8:1],,36,,2-5[8:1]/7-4[8:1],18,27,,37,,5pp5[8:2]*qq5[8:2],3x,5,,,,46,,3h[8:1]/7h[8:2],,,2h[8:1]/8h[8:2],,,,1>6[8:3],7,1,B7/B8,,B7/B8,,
8x-6-2[8:2],4,8,,4x-2-6[8:2],8,4,,7h[8:2],5,,7h[8:2],5p1[8:1],5,7h[8:2],,,,7-2[8:1],,7/3-6[8:1],,3/8,8,4,4,8z4[8:2],3,8,2x,2x,,6-4[8:1]/3-7[8:1],,63,,1x-3-5[8:1]/5x-7-1[8:1],,15,,4-8[8:1],,4xw8[8:2],6x,4,,,,53,,6h[8:1]/2h[8:2],,,7h[8:1]/1h[8:2],,,,8<3[8:3],2,8,B2/B1,,B2/B1,,C,,
6,6,1,1,7,2,8,3,1p5[8:1],,2,2,6,6,3>8[8:1],6,3,,7,7,1,1,8p4[8:1]*q4[8:1],,8,,,
3,3,E7,E7,,6-4[8:1]/4-2[8:1],,46,,3,5,3-5[8:1]/5-7[8:1],,35,,,5h[8:1],1h[8:1],6h[8:1],2h[8:1],7h[8:1],3h[8:2],,,Ch[8:6]f,B4,B3,B2,B1,B8,,,,,,
7b-4[8:1]/8b-4[8:1],,87,,1q5[8:1]/2>4[8:1],8x,12,,7<4[8:1]/2,8,7/2-6[8:1],3,7-5-1[8:2]/2,8,7b/4,,,3,3<6[8:2],,6<1[8:2],,1>4[8:2],,4w8[8:2],,,,,,18,2,18,7,8/1-3[8:1],8,7/1-5[8:1],7,8/1-3[8:1],8,7/1-5[8:1],7,8,8/1x>4[8:1],7x<4[8:1],1x,7b,,3h[8:2],5,5h[8:2],3,3h[8:2],4pp4[8:2]*qq4[8:2],,4x-8-2-4-6-8[8:5],,,,,,,,,
2b-5[8:1]/1b-5[8:1],,12,,8p4[8:1]/7<5[8:1],1x,87,,2>5[8:1]/7,1,2/7-3[8:1],6,2-4-8b[8:2]/7,1,2b/5,,,,1bx/C,,5bx/C,,7bx/C,,3bx/C,,8hb[8:2]/4bx,,C,,81,7,81,2,1/8-6[8:1],1,2/8-4[8:1],2,1/8-6[8:1],1,2/8-4[8:1],2,1,1/8x<5[8:1],2x>5[8:1],8x,2b,,6h[8:2],3,3h[8:2],5,5,5>4-1<8-5[8:7],4x,5x,,,,4hx[8:1],,4x,4x,,4b,,
5h[8:2],,,,5h[8:2],,,,5h[8:2],,4,,4h[8:2],,,,4h[8:2],,,,4h[8:2],,,4,4h[8:2],,,,4h[8:2],,,,3h[8:2],,E7,3,3h[8:2],,E7,,4h[8:2],,E7,4,4h[8:2],,E7,,5h[8:2],,E7,5,5h[8:2],,E7,,45,36,27,,A7/B7/B2/A2,A7/B7/B2/A2,,,
27,1,8,1,27,3v1[8:1]/6v8[8:1],27,36,,,2,7,2,E2/E8,E2/E8,,25,3,4,3,15,1-5[8:1],24,15,,,6,4,
{16}6,,4x,6x,{32}4x/E6,E5,E4,E3,E2,E1,E8,E7,
{8}E6,C,,,5-7-1[8:2]/4v2[8:2],,54,,,,72,6,52,B6/B2,B6/B2,,37,5,37,5,26,4,26,4,6b/A2,6b/E2,6b/B1,6b/B8,6b/E8,6b/A7,
{8}
8>6[8:6],6,8,,,7,7,,,7pp4[8:6],4,7,,,3,3,3h[8:2],,,6,3,6h[8:2],3,,3,3h[8:2],,7,7,8,3h[8:2]/8,,
1<3[8:6],3,1,,,2,2,,,2qq5[8:6],5,2,,,6,,6xw2b[8:8],,,,,,,,,,,2x-6[8:1]*-6b[8:1],,2b/Cf,7bx,,
{8}
5b-2[8:1]/1b-6[8:1],,5/1,,3>8[8:1]/7<4[8:1],48,3b/7b,,1-5[8:1]/7,2,1/7-4[8:1],6,1>4-8[8:2]/7,,1b,,,,5-8[8:1],,1b/B5,,2b/B5,,3b/B5,,4bw8[8:1]/E6/A6/B6/D6,,4b,,,3x/6x,2x/7x,1x/8x,7<5[8:1],7,3>1[8:1],3,6>4[8:1],6,2<8[8:1],2,5-7-3[8:2],5,3-1-5[8:2],3,,,1x,1x,1x/6-8[8:1]*-2[8:1],,6b,,3h[8:2],7,7h[8:3],3,3h[8:1],,37,1,37,51,
4b-7[8:1]/8b-3[8:1],,4/8,,6<1[8:1]/2>5[8:1],51,6b/2b,,8-4[8:1]/2,7,8/2-5[8:1],3,8<5-1b[8:2]/2,,8b,,,,28,2,7b-1[8:1]/2,2,2/7b,2,7b-5[8:1]/2,2,2b-6b[8:1]/7b-3b[8:1],,2bx/7bx,,C,3x/6x,7x/2x,8x/1x,2-4[8:1],2,6-8[8:1],6,3-5[8:1],3,7-1[8:1],7,4>2-6[8:2],4,6<8-4b[8:2],6,,,8x,8x,8h[8:2]/5-1b[8:1],,5b,,7h[8:2],2,2h[8:3],6,6h[8:1],,62,8,6-2b[8:1]/2,4,6b/2>5[8:2],,5x<8[8:2],,8bx>8[8:4],,Ch[8:4]f,,,,,1hx[8:1],,1x,1x,,1b/B7,
