&title=Howlin' Pumpkin || game
&artist=TEAM HARD TRANCE 2018
&first=0
&des=monimoni
&freemsg=
&wholebpm=140
&des_1=
&des_2=
&des_3=
&des_4=
&des_5=monimoni
&lv_5=13
&clock_count=4
&inote_1=
&inote_2=
&inote_3=
&inote_4=
&inote_5=(140)
{1},,
{4}1b/7h[16:12],1,2,2,3/6h[16:12],3,4,4,
{8}4h[16:12]/5,5,6,6,7,7,8,8,{16}1/8h[4:1],2,3,4,5,6,7,8,{24}1,,8,1,,8,{16}1,,8,,
{8}1b-5[8:1],,17,7,6h[4:1],,{24}4,,6,{8}4h[4:1],5,6h[4:1],5,3h[16:6],4,,4,34,
{8}45,56,{24}6,,5,6,,5,{8}6p4[4:1],,64,3,2h[16:6],8b,3b,7b,{24}52,,3,4,,3,{8}4,25,
{8}1bq3[1:1]/6b,,,,,5,4,4,3p8[1:1],,,,,6,7,7,8q2[1:1],,,,,7,6,6,5h[16:4],,
{24},,,,,,16,,7,8,,7,8,,,16,,,{8}5q7[1:1]/2h[8:1],,2h[8:1],,3h[8:1],,3h[8:1],,4h[8:1],,4h[8:1],,6h[8:1]/5p3[1:1],,6h[8:1],,7h[8:1],,7h[8:1],,8h[8:1],,8h[8:1],,1h[8:1]/2h[8:1],,1h[8:1]/2h[8:1],,{24}38,,2,1,,2,1,,,3h[8:1]/8,,,
{8}8bV64[4:1],3,4q5[4:1],3,2,2,1,1,2h[4:1]/8,7,1h[8:1],4h[8:1],8-5[8:1],4,8,4,
{8}1V35[4:1],6,5p4[4:1],6,7,7,8,8,7h[4:1]/1,2,8h[8:1],5h[8:1],{24}1-4[8:1],,5,1,,5,1,,,6,,,
{8}7V53[4:1]/2,2,3q5[4:1],2,1,1,8,8,1/6h[4:1],2,1h[8:1],5h[8:1],2-7[8:1],5,2,6,
{8}3V17[4:1]/6,6,7q1[4:1],6,5,5,4,4,5/2h[4:1],6,5h[8:1],1h[8:1],{24}6-3[8:1],,2,6,,2,6,,,1,,,1bw5[1:1],,,,,,
{4},,,,,,,8v5[1:1]*v3[1:1],,,,,,,,
{8}1b>8[16:6]/8b,,8,,7,,6,,8<1[16:6]/1,,1,,2,,3,,
{16}3,3,4,4,5,5,6,6,7,7,8,8,1,1,2,2,
{8}3s7[16:8],,5,5,8,1,1-4[8:1]*-6[8:1],8,1b,,5,4,3/6^1[8:1],,{24}6,,{24}4,4h[16:10],,,
{8}2,5,7,1,8,16,7-4[8:1]/2-7[8:1],83,27,,
{24}3,,3,4,,4,5-1[8:1],,,,,,{8}57,7h[2:1],8,5,3,1,{24}7,,7,8,,8,1,,1,2,,,
{8}2-4[8:1],1,2/7-4[8:1],8,7/3^8[8:1],,{24}3-5[8:1],,6,6,,,{8}3-7[8:1],7,3-1[8:1],6,3,,
{24}8,,2,8,,3,8h[8:1],,,3,,,4,,6,4,,6,4-1[8:1],,,,,,
{8}4/7-3[8:1],8,7/2-5[8:1],1,26,8,{24}8,,4,8,,4,8-4[8:1],,,4,,,
{8}8bpp5[1:1],,3h[8:1],,3h[8:1],,4h[8:1],,4h[8:1],,3h[8:1],,4-1[8:1]/5,,45,,2q4[1:1]/8h[8:1],,8h[8:1],,7h[8:1],,7h[8:1],,6h[8:1],,6h[8:1],,5-8[8:1]/4,,45,,
{8}1b/2bV46[8:1],2,1v6[8:1],1,2V46[8:1],2,1v6[8:1],1,4V28[8:1],4,7p3[8:1],7,4V28[8:1],4,7,7,
{16}5,5,4,4,3,3,2,2,1,1,8,8,7,7,6,6,5V72[4:1]*s1[4:1],,,,,,,,,,
{8}74,1-4[8:1]/2,,17,6h[8:1],3-7[8:1],4,8-4[8:1]/3,,{24}8/1-6[8:1],,2,2h[8:1],,,1^7[8:1],,,3,,,1-5[8:1],,,4,,,1/4q5[4:1],,,,,,
{8}6,7,8,8h[8:1],{24}1,,1,2,,2,3-6[8:1],,,,,,{8}3/7^2[8:1],8,7/5-2[8:1],4,58,7,
{24}3,,3,4,,4,5,,,5,,,{8}6,3h[8:1],6-2[8:1],5,1-5[8:1]/6,,{24}1/8-3[8:1],,7,7h[8:1],,,{8}8^2[8:1],6,8-4[8:1],5,5p4[4:1]/8,,3,2,1,1h[8:1],{24}8,,8,7,,7,6^3[8:1],,,,,,
{8}6/2^7[8:1],1,2/4-7[8:1],5,4/1,2,{24}6b,,6,5b,,5,4b,,,4,,,3b^8[8:1],,,
{8}6h[8:1],3-5[8:1],7,3/7-2[8:1],,{24}7/4-7[8:1],,3,3h[8:1],,,{8}4^6[8:1],2,4-8[8:1],1,1p8[4:1]/4,,7,6,5,5h[8:1],{24}1-5[8:1],,1,4,,4,1,,,
{8}6,7^2[8:1]/4,83,4-2[8:1]/7,5,4/1,8h[8:1],{24}3,,3,4,,4,5,,,5,,,6b^1[8:1],,,
{8}3h[8:1],6-4[8:1],2,2-7[8:1]/6,,{24}2/5-2[8:1],,6,6h[8:1],,,{8}5b^3[8:1],7,5-1[8:1],8,5/8V26[4:1],,2,3,4b,4h[8:1],{24}8-4[8:1],,8,5,,5,8b,,,3,,,
{8}36,1/8pp5[16:6],2,,3,,4,36,18,27,4b/5bpp2[1:1],4,4,,,1,8,1,2q4[1:1],8,8,,,3,2,3,4pp1[1:1],2,2,,,3,4,3,2h[4:1],,,,25,{24}3,,4,3,,,4,,,
{8}2bqq5[1:1]/5h[8:1],,5h[8:1],,6h[8:1],,6h[8:1],,7h[8:1],,7h[8:1],,8p5[1:1]/1h[8:1],,1h[8:1],,2h[8:1],,2h[8:1],,3h[8:1],,3h[8:1],,4h[8:1]/5h[8:1],,4h[8:1]/5h[8:1],,{24}36,,4,5,,4,5,,,36,,,
{8}1V35[4:1]/5,87,1/5p4[4:1],6,8,7,8,7,6h[4:1],1,5h[4:1],8,6-2[8:1],8,6/1,3,
{8}8V64[4:1]/4,12,8/4q5[4:1],3,1,2,1,2,3h[4:1],8,4h[4:1],1,{24}3-7[8:1],,7,3,,7,3,,,6,,,
{8}6V42[4:1]/2,18,6/2p8[4:1],8,8,1,2,3,4h[4:1],1,5h[4:1],8,2-6[8:1],4,27,1,
{8}3V17[4:1]/7,45,3/7p5[4:1],5,5,6,7,8,1h[4:1],4,2h[4:1],5,{24}7,,7,8,,8,1,,,2,,,
{4}3,4,5,6,7,8,1w5[8:1],1,
