&title=Paradigm Shift
&artist=Morimori Atsushi
&first=0.065
&des=Lumine09
&lv_5=14
&des_5=Lumine09
&inote_5=
(145){4},,,,7,
7,{8}6z2[4:1],5,{16},,,,,,7,
6,{8}8,{16}1,3,{8}2,{16}8,6,{8}7,{16}1,3,
{8}2,{16}8,7,{8}1,{16}2,4,{8}3,{16}1,7,{8}8,{16}2,4,
{8}3h[8:1],{16}7,6,,2,,,8,7x,6x,5x,{8}4x,{16}8,7,
{8}1,{16}6,4,{8}5,{16}7,1,{8}8bx,{16}2,8bx,{8}3,8bx,
{4}7h[8:1],7h[8:1],2h[8:1],2h[8:1],
{8}6,6,3,3,8,8,1,1,
8h[16:1],1h[16:1],8h[16:1],1h[16:1],8h[16:1],1h[16:1],8h[16:1],1h[16:1],
{16}8x
||这是一个标记~
,1x,8x,1x,{24}8bx-4b[16:1],1x,8bx,1-5[16:1],8bx,1x,{8}8bx,8/1bx-6b[16:1],,1/2,
{2}Cfh[4:1],{8}7,{16}3,8,{8}1b,1b,
6,3,6b,{16}6b,6b,{8}4w8b[16:1],8w4b[16:1],{16},,,,6/2,
,,7/3,,,{8}4/8h[12:1],6-1[16:1],1-4[16:1],7b,7b/1x>3[8:1],
5h[4:1],1<7[8:1],,1v3<4[4:1],6h[8:1],{16}1,8h[8:1],,,,,1h[8:1]/5h[8:1],
,,8,4,7,,3,6,2,,5,{8}1b,1b,
7-3b[16:1],7,7bx,{16}8,8bx,{8}8,{16}1,2,{8}7b,7b,
{16}6h[16:5],,,5,,,{8}4,6-2-8b[8:1],1,,,4h[4:1],
{16}8bx>5[16:5],7x,{8}6x,8bx,{16}3h[8:1],,,1h[8:1],,,{8}B8/B1/B7/B6/B5/B4/B3/B2,
Cf,{16}8,7,{8}6,{16}1,2,{8}3,{16}4,5,{8}6b,{16}8/6b,1,
{8}2,2,1,1h[16:1],{16}8bx,8,8bx,8,{4}8bxw4[16:1]*w4[16:1],
{16},,6,7,{8}6,{16}6,8,{8}6,{16}6,1,{8}6,{16}7,2,
{8}7,{16}8,3,{8}8,{16}1,5,{8}1b,{16}2,6,{4}2b-6b[16:1],
{8}2-4[16:1],2,2-7b[16:1],2,{4}2,{16}7xh[16:3]/8x-4b[16:1],1x,2x,3x,
{8}8-2[16:1],8,8-5b[16:1],8,{4}8,{16}8b/7xh[4:1],,,3b,
8,1,2,3,1,8,7,6,{32}8<5[32:3],1,2,3,8bxV64b[32:3],1bx,2bx,3bx,,,,,,,,,{8}A8f,
B8f,Cf,{16}B1f,A1f,,,,,{4}8bx-5b[8:1]*>2v4b[16:3],
{1}8>2v4-1-6-3-8[4:7],
{16},,,,,,,,,,,,,,,,A8,
A7,A6,A5,A4,A3,A2,A1,B8,B7,B6,B5,B4,B3,B2,B1,
{8}Cf,{24},,,,,,8bx,1x,8bx,{8}1x,1,8<6-2>4-8[1:1],8,
8,,,,,,,2,
{2}2,{6}7,1,7bh[24:25],
{8}4h[16:1],3h[16:1],4h[16:1],2h[16:1],4h[16:1],{24}1,2,3,{8}4,3,
{12}5h[24:1]/4h[24:1],6h[24:1]/3h[24:1],,{4}5bx
||这是一个标记~
,6,{8}7bx,2,
{16}8bh[2:1]/1h[2:1],,,,,,,,,B8,B2,B6,{8}B4,8bh[8:5],
{16}1h[2:1],,,,,,,,,B1,B7,E3,{8}A6,1h[8:5],
{16}8bh[2:1],,,,,,,,,A2/A7,D7/D3,A3/A6,{12}B2,E8,1h[12:7],
{8}8bh[2:1],,,,,7bx/2,3/6bx,5bx/4,
{16}5bh[16:3],6xh[16:1],,4bh[16:3],{8}3xh[16:1],{16}6bh[16:3],7xh[16:1],,3bh[16:3],{8}2xh[16:1],{16}6bh[16:3],7xh[16:1],,2h[16:3],
{8}1bxh[16:1],{16}7bxh[16:3],8xh[16:1],,2h[16:3],{8}1bxh[16:1],{16}8bh[16:3],1xh[16:1],,,{8}1-3[16:1],8bh[8:1],
{4}1-5[16:1],1bx/5-1[16:1],1-5[16:1],5x,
{8}5x-2[16:1],5bx-8b[16:1],5x,5bx,{16}8x-3[16:1],8bx-5b[16:1],8x-2[16:1],8bx-6b[16:1],8xh[32:1],8bxh[32:1],8xh[32:1],8bxh[32:1],
{1}8x<1[1:1],
{4},,8w4[16:1]/1w5[16:1],8b/1b,
{16}5b,4,6bx,3,8bx,1,7bx,2,5b,4,6bx,3,8bx,1,7bx,2,
5b,4,6bx,3,7bx,2,8bx,1,7b,2,6bx,3,{8}5h[8:1],4h,
{16}4b,5,3,6,1,8,2,7,4b,5,3,6,1,8,2,7,
4b,5,3,6,2,7,1,8,2b,7,3,6,{8}4h[8:1],5h,
{16}5b,1,8bx,4,6bx,2,8bx,4,6b,2,1bx,5,7bx,3,1bx,5,
7b,3,2bx,6,8bx,4,2bx,6,1b,5,8bx,4,{8}7h[8:1],3,
{16}4b,8,1,5,3,7,1,5,3b,7,8,4,2,6,8,4,
2b,6,7,3,{24}1x
||这是一个标记~
,2x,3x,5x/4x,6x,7x,{8}8x,{16}2,2,2,2,{24}4x,4x,4x,
{6}4bx-8[16:1],{12}4h[24:1],3b-7[16:1],,3h[24:1],{6}2b-6[16:1],{12}2h[24:1],1b-5[16:1],,1xh[24:1],
{6}6b-2[16:1],{12}6h[24:1],7b-3[16:1],,7h[24:1],{6}8b-4[16:1],{12}8xh[24:1],1b,{24},,,,(290){8}1>4[8:1],
8,7,6<1[8:1],5,4x,3<6[8:1],2,
1x,8>3[8:1],7,6x,5<8[8:1],4,3x,2>5[8:1],
1,8x,7>2[8:1],6,5x,4<7[8:1],,3,
2b,,,2b/8b,,,{4}2b/6b,
{2}E7h[4:1]/E3h[4:1],{8}7b-3[8:1],7b,7b,4-8[8:1],
4,4,5b-1[8:1],5b,5b,2-6[8:1],2,2,
8b-4[8:1],8b,8b,7-3[8:1],7,7,6b-3[8:1]
||这是一个标记~
,6b,
6b,8-3[24:5],8,8-5[24:5],{2}8h[4:1],
(145){16}7bh[16:1],8,1bh[16:1],2,3bh[16:1],4,5bh[16:1],6,7bh[16:1],8,7bh[16:1],6,5bh[16:1],4,{8}3bh[16:1],
{16}2/6b,2/6b,7b/3,7b/3,{24}1,8bx,1,8bx,{48}1,8bx,,,,,,,,,{16}8bx/2,8bx/3,4/8bxw4[8:1],8bx/5,8bx/6h[24:1],{48}8bx,7h[24:1],,{2}8bx,
3h[8:3],
B3,6h[8:3],
B6,3h[8:3],
{8}B3,,,7h[8:1],{24},,,,{3}5h[24:5],
{2}B5,5h[8:3],
B5,3h[8:3],
{16}8bx,1x,7bx,8x,6bxp2b[4:1],7x,5bx,6x,{48},,,,,,{24}1,8,7,{4}6p3[4:3],
{1}6,
E
