&title=ウシロジカン
&artist=ゆーり; 原口沙輔
&first=0
&des=ラビ星
&lv_5=13+
&inote_5=(170)
{1},
{16}
A8,A1,C,E5,E7,E3,E6f,E4,
{8}
7xb^1b[8:1],,5,5h[4:1],A1,A8,C,
7-2b[8:1],,3,4,4h[4:1],A2,1x-5[8:1],8,,
7^1b[8:1],,5,5h[4:1],A1,A8,C,
7-3b[8:1],,{16}2x,1x,8x-4[8:1],,A3,,4x,5x,6x,,
D8f,,,,
{8}
2xb^8b[8:1],,4,4h[4:1],A8,A1,C,2-7b[8:1],,6,5,5h[4:1],A7,8x-4[8:1],1,,
2^8b[8:1],,4,4h[4:1],A8,A1,C,2b-6b[8:1],,6,8bw4[8:1],,A8f,,,,
7^4[4:1],,4,,3,3,,2qq7[8:3],,4,,5,5,,6qq3[8:3],,8,,1,1,2,2-5[8:1],,5,,6,7-1[8:1],,5-2[8:1],5,,,
A2f/6^4[8:1],,4,3,2^8[8:1],,4,4,1-4[8:1],,5,6,7-3[8:1],,5,5,2^7[8:1],,4,3,2-6[8:1],,2,5-8[8:1],,5,1-5b[8:1]*-4[8:1],,,,
{16}
6xh[4:1],,,,
8x-5[8:1],,,,7,,,7,4,,4,,5h[8:1],,
3x-8[8:1],,,,3,,4,,,4,1,,1,,7h[8:1],,
5x-1[8:1],,,,5,,6,,,6,2,,2,,4,,4pp8[8:5],,,,1,,1pp8[4:1],,,,1,,,,,,,,
A8f/6xb-3[8:1],,,,1x,,,1,4,,4,,2h[8:1],,1-6[8:1],,,,1,,5h[4:1],,,,6,,5,,4,,
3-6[8:1],,,,
1,,8,,7-2[8:1],,,,5,,4,,3h[4:1],,,,1,,5b-1b[8:1]/7h[4:1],,,,5b,,,,
{48}A7,B7,,C,,B3,{8}A3,
2x^4qq5b[2:1],,,,,,E1,,1x>7[8:3]*>4qq5b[2:1],,,,,,E8,,8x>7[128:57]*^3q5b[2:1],,,,,,,,
8q1b[8:5],,,,5-2[8:1]*-2[8:1],,,,
3xh[4:1],,4,5,6h[4:1],,4,3,2xh[4:1],,4xh[4:1],,5xh[4:1],,7x,
{16}
5,5,6x-8[8:1],,,,4-2-4b[4:1],,,,5-1-5b[4:1],,,,5v2^3-5[8:3]*v8^7-5[8:3],,,,,,,,,,,,
A4,A3,A2,A1,A5,A6,A7,A8,
2b-6[8:1],,,,12,,,8,5-1[8:1],,5,,6,,7V51[16:3],,,,2,,2h[16:3],,,1,3-7b[8:1],,3,,,,
8^2[8:1],,,,5,,4^6[8:1],,3,,2,,1>6b[4:1],,8,,7b,,,,
8,,6,,5-1b[8:1]/7-4[8:1],,,,57,,,,,,
2-5[8:1],,,,28,,,7,4-1[8:1],,4,,5,,4V63[16:3],,,,2,,2h[16:3],,,4,1-5[8:1],,1,,,,
6b-8[8:1],,,,6,,4-2[8:1],,1,,4,,5-1[8:1],,1,,5,,5-1b[8:1],,1,,5b<4[4:1]*<4[4:1],,,,5x,,,,,,,,
7b-3[8:1],,,,87,,,1,4-8[8:1],,4,,3,,2V48[16:3],,,,7,,7h[16:3],,,8,6-2b[8:1],,6,,,,
1^7[8:1],,,,4,,5^3[8:1],,6,,7,,8<3b[4:1],,1,,2b,,,,
1,,3,,4-8b[8:1]/2-5[8:1],,,,42,,,,,,
7-4[8:1],,,,71,,,2,5-8[8:1],,5,,4,,5V36[16:3],,,,7,,7h[16:3],,,5,8-4[8:1],,8,,,,
3b-1[8:1],,,,3,,5-7[8:1],,8,,5,,4-8[8:1],,8,,4,,4-8b[8:1],,8,,4w8b[4:1],,,,4x,,,,,,,,
{8}
2^8b[8:1],,4,4h[4:1],A8,A1,C,
2-7b[8:1],,6,5,5h[4:1],A7,8-4[8:1],1,,
2^8b[8:1],,4,4h[4:1],A8,A1,C,
2-6b[8:1],,{16}7x,8x,1x-5[8:1],,A6,,5x,4x,3x,,
D2f,,,,
{8}
7^1b[8:1],,5,5h[4:1],A1,A8,C,7-2b[8:1],,3,4,4h[4:1],A2,1-5[8:1],8,,
7^1b[8:1],,5,5h[4:1],A1,A8,C,7b-3b[8:1],,3,1bw5[8:1],,A1f,,,,
5xh[4:3]/7xh[24:8],,,,6h[4:1],,,,
3xh[24:8]/5xh[4:3],,,,4h[4:1],,,,
2xh[4:3]/4xh[24:8],,,,3h[4:1],,,,
1xh[24:8]/2xh[24:3],,,,1-6[8:1]/2-5[8:1],,,,
3-1[8:1],,{24}3,,4x,,,,{8}5h[4:1],,4,,
6-8[8:1],5x,{24}6x,,5x,,,,{8}4h[4:1],,5,,
3-1[8:1],,{24}3,,4x,,,,{8}5h[4:1],,4,,
,6,4b-1[8:1]/5b-8[8:1],,45,,,,
{4}
7xq1b[2:1],,,E6,
6x<3[8:3]*^7q1b[2:1],,,E5,
5x<3[64:27]*^7q1b[2:1],,,,
4xq5[8:5],7xq1b[8:3],,,
{8}
6xh[4:1]/2x,,1,5,4x/8xh[4:1],,3,7,2x/6xh[4:1],,8xh[4:1],,1xh[4:1],,3x,
{16}
1,1,2b-4[8:1],,,,8-6-8[4:1]*-6-8[4:1],,,,1-5-1b[4:1],,,,1bv2^3-5[8:3]*v8^7-5[8:3],,,,,,,,,,,,
A4,A3,A2,A1,A5,A6,A7,A8,
{4}
2xb<3[8:13],,,,,,,{8},
{4}
2<3[8:13],,,,,,2^7b[8:1],,{8},
3qq5[4:5],,,,,,,6p4[8:3],,,,,,,
4x/5x,3-1[8:1],,3,5-7[8:1],8,5,4-8[8:1],8,4,4-8b[8:1],8,4b>5b[4:1],,4x,,
Cf,,
{16}
2-6b[8:1]/7b-1[8:1],,,,27,,,5x,1-5[8:1],,1,,4,,3-7[8:1],,,,2,,2h[16:3],,,1,3b-7b[8:1],,3,,8,,1>4[8:1],,,,5<8[8:1],,5,,2>5[8:1],,1-5[8:1],,2-6b[8:1],,1,,2b<7[8:1],,,,
5,,4,,3b<6b[8:1],,,,3b/6b,,,,,,
7-3b[8:1]/2b-8[8:1],,,,72,,,4x,8-4[8:1],,8,,5,,6-2[8:1],,,,7,,7h[16:3],,,8,6b-2b[8:1],,6,,1,,
{8}
8b-6[8:1],,8,2-4[8:1],5,2,8-5[8:1],5,8,2-5[8:1],5,2,1-5[8:1],5,1,1-5[8:1],5,1,1-5[8:1],6,1,1-5[8:1],4,1,1^6b[8:1],6^3b[8:1],1,1w5b[8:1],,1b,,,,
{8}
7xb^1b[8:1],,5,5h[4:1],A1,A8,C,
7-2b[8:1],,3,4,4h[4:1],A2,1x-5[8:1],8,,
7^1b[8:1],,5,5h[4:1],A1,A8,C,
7-3b[8:1],,{16}2x,1x,8x-4[8:1],,A3,,4x,5x,6x,,
B7`E8,,B2`E2,,
{8}
5x^3b[8:1],,2,2h[4:1],D1,E8,C,
7-2b[8:1],,5,4-6[8:1],3-7[8:1],,,8,8,
4x^6b[8:1],,7,7h[4:1],D1,E2,C,
2b-7[8:1],,2b/7b,6b-3b[8:1],,3b/6b,,Cf,,,,,,
