&title=Blue Diamond
&artist=青龙改
&first=0.05
&des=La=C=Tose改
&lv_5=14.9
&inote_5=(272){4},{1},{4},,{16}4,
5,4,5,
{8}2-5[8:1],7,{16}8,7,{8}6,4,3,6,5,
{16}1,2,{8}3,6,4/5-1[8:1],,,4,3,
{16}8b,7,6,5,2,3,4,5,7,6,5,4,1,2,3,4,
{4}7<4[4:1],{8}3,2,{4}1,{8}8,6,
1-6[8:1],7,{4}1,{8}7-3[8:1],5,{4}7,
{8}4,2,8,6,{16}1,2,3,4,8,7,6,5,
{8}3,3,4,4,5,5,6,6,
7,5,6,4,5,2h,2h,2h,
{4}8-6[8:1],8-4[8:1],8>3[8:1],8b,
4,{8}3,2h[4:1],,,4,3,
5-7[8:1],4,{4}5,{8}8x<5[4:1],5,4,3,
{4}2h[4:1],{16}4,5,6,7,8/1,2,3,4,{8}8,8,
{4}1-3[8:1],1-5[8:1],1<6[8:1],1b,
{8}4,5,6,7h[4:1],,,1,8,
{16}2,3,{8}4,{4}8h[8:1],{16}7/3,6,{8}5,{16},,1/6,2,
{4}3h[8:5],8b,{8},1,{16}8,7,{8}6,
{4}4/3,4/6,4/2,{16}1/6,2,3,4,
{8}5-2[8:1],6-1[8:1],5,6,,,3,7,
2-5[8:1]/6-1[8:1],6/2,{4}6b/2b,3x/7x,{8}4,5,
3,2,6,7,2,1,8,7,
{4}5/6,5/3,5/7,{16}4/6,3,2,1,
{8}8-3[8:1],4-7[8:1],8,4,,3,4,5,
6/2,6/2,6/2,6/2,7/3,7/3,7/3,7/3,
4h,5h,6h,7h,{12}1,2,3,4/5,6,7,
{16}2,3,4,5,2,3,4,5,1,2,3,4,1,2,3,4,
8,1,2,3,5,6,7,8,2,3,4,5,8,7,6,5,
{8}3,2,4,3,{12}5,3,5,4,6,4,
{8}7,7,5,5,3,3,{4}1>4[8:1],
1/5,6,7-4[8:1],{8}3,3,
{4}2,3/1-5[8:1],{8},,6,7,
8,8,6,6,4,4,2,2,
5,4,{16}6,5,7,4,8,3,1-5[8:1],2,{4}1,
3-8[8:1],3,5-1[8:1],5/8,
2-6[8:1]/8-4[8:1],2/8,{8},,7,4,
{4}3/5,3/1,7/3,3/5,
{8}2,3,4,5,{2}6-2[8:1],
{8}4-2[8:1],5,6,7,{4}8>3[8:1],{16}4x,5,6,7,
{8}8-4[8:1],4,3,2,1-5[8:1],8,7,6,
4,6,3,3,7,7,8-4[8:1],1,
{4}8,{16}1,2,{8}3,{16}5,6,7,8,{32}4x,5,6,7,8,1,2,3,
{8}8-4[8:1],8,1-3[8:1],1,7-5[8:1],7,{4}4>1[8:1],
4/8h[8:3],{16}7,6,5,4,8,7,6,5,1,8,7,6,
{8}4,4,2,6,{12}3,5,3,5,3,5,
{16}2,1,8,7,6,5,4,3,{8}2/6,1,8,7,
{16}1,2,3,4,1,2,3,4,8,1,2,3,8,1,2,3,
7,8,1,2,4,5,6,7,1,2,3,4,7,6,5,4,
{4}3>5[2:1],,,2x>8[4:3],
{8}B1,B8,,,,,,,2,
4,3,5,4,6,{4}5/7h[8:1],
{8}8,8,8,8,8,8,1,7,
3,5,4,6,3,7,{4}2/8h[8:1],
{8}1,1,1,1,1,1,2,8,
3,4,7,5,6,4,{4}3/5h[8:1],
{8}4,4,4,4,4,4,3,5,
2,1,6,7,8,1,2,3,
{4}6/4h[4:1],{8}8,7,{16}4,3,{8}2,{16}8,7,6,5,
{4}2-6[8:1],1-5[8:1],8-4[8:1],E7/B6/E6/A6,
{16}3,2,{8}1-5[8:1],8,8,,7b/2b,,3,
6-2[8:1],6,4,4,1-5[8:1],1,{4}2b,
{16}6x,7,8,1,{8}4,5-2[8:1],,5,{4}7b,
7-3[8:1],8-4[8:1],1-5[8:1],E3/B3/A3/E4,
{16}6,7,{8}8-4[8:1],1,1,,2,3,6,
7-3[8:1],7,1-5[8:1],1,8-4[8:1],8,2-6[8:1],2,
7,8,5,4,7,6,3,2,
{4}5/1-5[8:1],6<1[8:1],2>5[8:1],A7/B7/E7/B6/A6,
{16}4x,3,{8}2-6[8:1],8,8,,5,4,{16}8,7,
{8}6h[4:1],1,2,2,7-4[8:1],3-8[8:1],7,3,
B5/E5,E1/B1,E7/B7,E3/B3,4x>2[8:1]/8x<6[8:1],4x/8x,{4}4x/8x,
1/5h[4:1],{16}8,7,6,5,4,3,2,1,{4}8h[4:1],
4,{16}5,6,7,8,{8}1,1,{4}2/8,
{8}3,3,5,4,7,7,1,2,
4-7[8:1],4,3,3,8<5[8:1],8,{16}5,4,3,2,
{8}1h[8:1],4,1h[8:1],3,1h[8:1],5,1h[8:1],6,
7/2,3,8/4,7,4,6/5-2[8:1],,5x,
7h[8:1],1,7h[8:1],2,6,3/4-7[8:1],,4x,
2h[8:1],8,2h[8:1],7,3,6/5-2[8:1],,5x,
{4}8h[8:1],7h[8:1]/1h[8:1],6h[8:1]/2h[8:1],5h[8:1]/3h[8:1],
{8}4,3,2,2,8,8,{16}3,7,4,6,
2,5,2,5,3,6,3,6,4,7,4,7,3,6,3,6,
E4,B4,B5,E6,E2,B1,B8,E8,A3,E3,E2,A1,A7,E7,E6,A5,
3x,7,3,7,3,7,3,7,3,7,3,7,3,7,3,7,
4,6,4,6,4,6,4,6,{8}3h[8:1],2h[8:1],1h[8:1],8,
{4}7/2,{8}3,4,{4}5/2,{8}6,5,
{16}4/8,7,6,5,1,2,3,4,7,6,5,4,2,3,4,5,
{4}1b,{16}8-4[8:1],1,7,2,{4}8,{16}3,5,4,6,
{8}3h[16:1],5h[16:1],3h[16:1],5h[16:1],4h[16:1],6h[16:1],4h[16:1],6h[16:1],
{16}4,3,{8}2,8,2,{16}7,6,{8}5,3,5,
4/3,2h[8:1],,,7,6h[8:1]/5h[8:1],,,2,
2,1,1,8,8,7,7,
1,6,2,7,3,8,2,7,
1,1,8,8,2,2,7,7,
6/2,6/2,{16}1,2,3,4,{4}5h[4:1],C,
{16}4,5,4,5,4,5,4,5,{8}3h[8:1],4h[8:1],5h[8:1],6h[8:1],
{4}2-5[8:1],{16}5,6,7,8,{4}1-6[8:1],3,
{8}3h[16:1],6h[16:1],3h[16:1],6h[16:1],2,4,5,7,
{4}8-4[8:1],{8}3,2,1-5[8:1],1,,,7,
7,6,6,5,4,{16}7,6,{8}5,
{16}3,4,2,4,{8}3,5,6,7h[8:1],{4}4b,
{16}2,3,{8}4,{16}6,5,6,5,{8}7,{16}3,4,3,4,{8}2,
,,{4}E7/A6/B6/B3/E3/A3,{32}3x,4x,5x,6x,3x,4x,5x,6x,3x,4x,5x,6x,,,,,{8}7/2-6[8:1],
2,{4}8-3[8:1],{8}5,5,{16}4x/8x,3/7,2/6,1/5,
{4}8/4-7[8:1],4/2b-6[8:1],2/8-4[8:1],8b,
{8}3-1[8:1],3,5-7[8:1],5,{4}8w4[8:1],8x,
6/2b,{8}1,8,{16}2/7,3,4,5,6,7,8,1,
{8}2/4-8[8:1],3,{4}4x,{8}2,3,4,5,
3,4,5,6,5-1[8:1],7,{4}5x,
{8}2/8-4[8:1],,,2,5/3,6,{4}4/7h[4:1],
{8}5-2[8:1],5,8-4[8:1],8,1,1h[4:1],,5b,
3/7-3[8:1],7,{4}1-6[8:1],{8}4,4,{16}5x/1x,6/2,7/3,8/4,
{4}1/5-2[8:1],5/7b-3[8:1],7/1-5[8:1],1b,
{8}6-8[8:1],6,4-2[8:1],4,{4}1,{8}8,7/2,
,1,8,7,{4}5/3,7h[8:1]/1h[8:1],
{8}8-4[8:1],8,1-3[8:1],1,{4}5,7/4,
{8}8-4[8:1],8,2-6[8:1],2,{4}5,4/8,
{16}1,8,1,8,2,7,2,7,3,6,3,6,4,5,4xh[8:1],5xh[16:3],
,,,,{8}3xh[4:1],6xh[4:1],,,{4}1b,
{8}7/8,6,5/2,3,{4}6<8[8:1],{8}4,4,
3,8,2,7,1-5[8:1],5,1,6,
{4}7-4[8:1],{8}4,3,{4}2-5[8:1],6/2,
{8}7,7,5,6,4,5,3,3,
{4}2-5[8:1],{8}5,6,{4}7-4[8:1],{8}3/7,2,
,1h[4:1],,8,{4}7/2,{16}1/8,2/7,3/6,5/4,
,,,,{4}6/3,{8}2,1,8,7,
{16}6x/2x,3/7,4/8,5/1,,,,,{8}4/8,3/7,{4}2b/6b,
{16}7x,6,3x,4,7x,6,3x,4,6x,5,2x,3,6x,5,2x,3,
7,1,7,1,7,1,7,1,8xw4[8:1],8,8x,8,{4}8b,
2h[4:1],{8}4,5,6h[8:3],2,{16},,,,1,
2,3,4,1,2,3,4,7,6,5,4,7,6,5,4,
{4}2/3h[2:1],{8}1,8,7,6-1[8:1],{16},,3,4,
5,6,7,8,2,3,4,5,2,3,4,5,2,3,4,5,
{4}7/6h[2:1],{8}8,1,2,3-8[8:1],{16},,6,5,
4,3,2,1,7,6,5,4,7,6,5,4,{32}8,7,6,5,4,3,2,1,
{8}4x/8,4x,6x/2x,5x/1x,4b/8b,4b/8b,4b/8b,8b>3[8:1]/4b<7[8:1],
E
