&title=Mistletoe
&artist=葉月ゆら
&first=0
&des=Ylilvul
&lv_5=14
&inote_5=(212)
{4},,,,
{4}5h[4:14]/B2,,B2,,
{4}B2,,B2,,
{4}B4,,B3,,
{4}B1,,E3,,
{4}4h[4:14]/B7,,B7,,
{4}B7,,B7,,
{4}E8,,B6,,
{4}E7,,B5,,
{16}3/5h[4:1],,,,3,,3,,4h[4:1],,,,1,,,,
{16}1/7h[4:1],2,3,4,,,,,6h[4:1],,5,,5,,,,
{16}3/7h[4:1],,,,2,,,,5h[4:1]/1h[4:5],,,,,,,,
{16}4h[4:1],,,,,,,,6h[4:1],,,,,,,,
{16}3h[4:1]/5,,,,6,,6,,2h[4:1],,,,7,,,,
{16}8h[4:1]/7,6,5,4,,,,,1h[4:1],,3,,3,,,,
{16}5h[4:1]/6,,,,7,,,,8h[4:5]/1h[4:1],,,,,,,,
{16}7h[4:1],,,,,,,,4h[4:1],,,,,,7,,
{16}7h[4:2]/5h[4:1],,,,,,,,3h[4:1],,,,,,1,,
{16}1h[4:2]/3h[4:1],,,,,,,,5h[4:1],,,,,,6,,
{16}6h[4:6]/2h[4:1],,,,,,,,4h[4:1],,,,,,,,
{16}3h[4:1],,,,,,,,1h[4:1],,,,8,,8,,
{16}8h[4:1],,2,,2h[4:4],,,,3h[4:1],,,,,,,,
{16}5h[4:1],,,,,,,,4h[4:1]/7h[4:1],,,,,,,,
{16}8h[4:6]/6h[4:1],,,,,,,,7h[4:1],,,,,,,,
{16}1h[4:1],,,,,,,,2h[4:1],,,,,,3,,
{16}3h[4:2]/4h[4:1],,,,,,,,6h[4:1],,,,,,7,,
{16}7h[4:2]/6h[4:1],,,,,,,,4h[4:1],,,,,,2,,
{16}2h[4:5]/1h[4:1],,,,,,,,3h[4:1],,,,,,,,
{16}4h[4:1],,,,,,,,3h[4:1]/5xh[16:1],,,6xh[16:1],,,7xh[128:1],,
{16}7xh[4:5]/5h[4:1],,,,,,,,8h[4:1],,,,,,,,
{16}2h[4:1],,,,,,,,1h[4:1]/8h[4:1],,,,,,,,
{16}2h[4:6]/7h[4:15],,,,,,,,,,,,,,,,
{16},,,,,,,,,,,,,,,,
{16}4qq1[4:6],,,,,,,,,,,,,,,,
{16},,,,,,,,,,,,,,,,
{16}2h[4:2],,,,4,,,,4,,,,1,,1,,
{16}7,,8,,7,,8,,6,,,,5/7,,,,
{16}4/8h[4:2],,,,3,,,,3,,,,7,,7,,
{16}3,,4,,3,,4,,2,,,,1,,,,
{16}6h[4:2],,,,5,,,,5,,,,4,,4,,
{16}1,,2,,1,,2,,8,,,,3/7,,,,
{16}4/5h[4:2],,,,3,,,,3,,,,2,,2,,
{16}6,,5,,6,,5,,7,,,,8,,1,,
{16}2h[4:1]/7,,,,6,,,,3/5,,,,4,,4h[4:1],,
{16}6,,7h[8:3],,3,,2,,1,,,,1/7,,,,
{16}2/6h[4:1],,,,3,,,,4/8,,,,8,,8h[4:1],,
{16}4,,3h[8:3],,7,,6,,5,,,,3/7,,,,
{16}4h[4:1]/6,,,,5,,,,2/4,,,,1,,1h[4:1],,
{16}5,,6h[8:3],,2,,3,,4,,,,2/6,,,,
{16}7h[4:1]/3,,,,4,,,,3/6,,,,5,,5h[4:1],,
{16}2,,1h[8:3],,6,,7,,8h[4:1],,,,1,,2,,
{16}3/7,,3,,4,,5,,6/4,,,,3/7,,,,
{16}8/3h[16:3],7,6,5,2,1,8,7,4,3,2,1,4/8,3/7,2/6,1/5,
{16}4b/8b,,,,C,,,,2/8,,7,,6,,5h[4:1],,
{16}2,,1,,4/8,1/5,2/6,3/7,4b/8b,,,,C,,,,
{16}3/7,,6,,5,,4,,5/3,,,,2,,,,
{16}1/6h[16:3],2,3,4,7,8,1,2,5,6,7,8,1/5,2/6,3/7,4/8,
{16}5b/1b,,,,C,,,,1/7,,2,,3,,4h[4:1],,
{16}7,,8,,1/5,4/8,3/7,2/6,1b/5b,,,,C,,,,
{16}2/6,,1,,8,,7,,2/6,,,,6,,,,
{16}6/3h[16:3],7,8,1,4,5,6,7,2,3,4,5,2/6,3/7,4/8,5/1,
{16}2b/6b,,,,C,,,,3/5,,4,,5,,6,,
{16}1/7,,8,,8,1/7,2/6,3/5,4b,,,,C,,,,
{16}4/7,,8,,1,,2,,3/7,,,,2,,,,
{16}3/6h[16:3],2,1,8,5,4,3,2,7,6,5,4,7/3,6/2,5/1,4/8,
{16}3b/7b,,,,C,,,,4/6,,5,,4,,3,,
{16}2/8,,1,,1,2/8,3/7,4/6,5b,,,,,,,,
{16}3/5h[4:1],,,,2,,2,,6h[4:1],,,,1,,,,
{16}1/5h[4:1],2,3,4,,,,,3h[4:1],,4,,5,,6,,
{16}7h[4:1],,,,1,,,,8h[4:5]/2h[4:1],,,,,,,,
{16}3h[4:1],,,,,,,,4h[4:1],,,,,,,,
{16}6/4h[4:1],,,,7,,7,,3h[4:1],,,,8,,,,
{16}8/4h[4:1],7,6,5,,,,,6h[4:1],,5,,4,,3,,
{16}2h[4:1],,,,8,,,,1h[4:5]/7h[4:1],,,,,,,,
{16}6h[4:1],,,,,,,,5h[4:1],,,,,,,,
{16}3h[4:4]/7h[4:2],,,,,,,,,,,,,,,,
{24}6,5,4,{16},,,,,,2h[4:1],,,,3,,,,
{16}1h[4:1],,,,8,,,,7h[4:5],,,,,,,,
{16},,,,,,,,,,,,,,,,
{16}2h[4:2]/6h[4:4],,,,,,,,,,,,,,,,
{24}3,4,5,{16},,,,,,7h[4:1],,,,6,,,,
{16}8h[4:1],,,,1,,,,2h[4:4],,,,,,,,
{16},,,,,,,,,,,,,,,,
{16}3,4,5V31[4:6]*V71[4:6],,,,,,,,,,,,,,
{16},,,,,,,,,,,,,,,,
