&title=Your Mind
&artist=Roy Mikelate
&first=0.085
&des_5=Ra_V_S
&lv_5=14+
&des=Ra_V_S
&inote_5=(180){4},,,,2bv5[8:1]/8bv5[8:1],
8x/2x,{12}3bv8[8:1]/7bv4[8:1],3/7,3/7,{48}7/3,,,Cf,{96},,,,,,,,,,,,,,,,{32}1b/5bV74-1-3[2:1],
2/6,7/3,4/8h[32:13],{4},,{16},,{4}C,
8x/4h[1:1],8,7,{12}7,,6,
{6}6h[4:1],{12}5,5h[4:1],,4,{6}4h[4:1],{12}3,3h[4:1],,2,
2,3,2,3,,2,1,3,,4/8,,7,
{4}5/6-2[8:1],4-8[8:1],7-4[8:1],3-8[8:1],
{6}7b,{12}6,5,,3,{6}4,{12}2,1,,7,
8,6,1,5,{24},,2,3,{6}4,{24}7,6,{12}5,{24},,3,2,
{4}1/8bp5[4:1],4xp1[4:1],,6bx,
,,,Cf,
{6}1b/8bh[6:1],{12}3,3/8h[6:1],,,{6}2/8h[6:1],{12}3,8h[6:1],{6}4,
{12}5/6,7,,4/3,2,,8/7,6,,1/2,3,,5/1h[6:1],
6,7,8/1h[6:1],,8,{6}8/1h[6:1],{12}7,1h[6:1],{6}6,
{12}2/4,5,,5/7,4,,1-5[8:1],8,2,1b,,,{4}6/2-6[8:1],
{12}2/5,,7,8/1,7/2,6/3,5/4,,3,
{6}4/2h[6:1],{12}4,3,4,3,{6}7h[6:1],{12}5,6,5,6,
7/1,2,3,4/8,7,6,5/4,3,2,1bx/B5/B4/B6,,,8,
8,{6}8,{12}1,1,1,1,1,1-5[8:1],1,1,
{6}1b-3[8:1],{12}6,6/1-5[8:1],,,{6}7/1-3[8:1],{12}6,1-7[8:1],{6}5,
{4}2h[12:1]/1-5[8:1],3h[12:1]/1-7[8:1],4h[12:1]/1-5[8:1],1/3h[12:1],
{12}6/3,5,4,3/6,,2,1/3,2/8,1/7,8/6,,5/4,
,,{6}2/E6,7/B1,3/A4,6/D8,3/Cf,
5b/1b-5[8:1],{12}1,1/7-4[8:1],,7,{6}7/3-8[8:1],{12}3,3/6,,5,
{6}4/3,{12}2,3/1,8,7,{6}5/6,{12}7,8/6-2[8:1],1,2,
{4}6b/3-5[8:1],3/7-1[8:1],7/4-8[8:1],4/8,
6b/2b,{24}4b/8b,7/3,6/2,5/1,,,1b/5bw1[8:1],6/2,7/3,4/8,,,5b,Cf,,,,,{1}6bh[1:2]/4b-7-3-8<1[2:3],
{12},,,,,,,,,,,,B3,
E3,B2,A2,,B8,{6}B7/B1,B6/B2,E6/E3,
{12}D4,A3,D3,D7,A7,D8,E4,B6,B2,E6,B3,B7,
{6}B1/B8,{12}A4,B4,,A5,{6}B5,E2,E8,
E3/D3,E4/D4,{12}B8,B1,{6}E7/D7,E8/D8,{12}B4,B5,
{4}B2/E2,B7/E8,A3/E4,E6/A6,
{6}2h[6:1],3h[6:1],4h[6:1],5h[6:1],6h[6:1],7h[6:1],
{1}8b>7[2:7],
{4},,,,,,,,,,,,4,
{12}3,,2,,,7,4,,6,
,,{6}1,{12},1,{4}5,5,
3,{12}7,,8,,,1,5,,2,
,,{6}6,{12},6,{2}4-8[8:1],
A2/B2/B6/A6/Cf,3x/1x,
5,6x/8x,
{4}4/5,5,6/1,{12}6,,3,
{4}3/5,3,{6}8/2,{12}6,2,,,{4}7-5[4:1],
5-1[4:1],1-7[4:1],2,
3<6[4:1],6<1[4:1],1>4[4:1],4,
6h[6:1],5h[6:1]/7h[6:1],8h[6:1]/4h[6:1],3h[6:1]/1h[6:1],
2h[6:1]/8h[6:1],6h[6:1]/4h[6:1],7h[6:1]/1h[6:1],{12}5/3,,4,
{4}7b/5>8[2:1],6,5,4,
1x/3x-6-1[2:1],2,3,4,
8b-5[8:1],3,1-4[8:1],6,
5x<8[8:1],2,4>1[8:1],7,
{6}8b/6h[6:1],{12}1,7h[6:1],,2,{6}8h[6:1],{12}3,1h[6:1],,,{4}2x/8x,
{12}5,5,5,{4}6x/4x,{12}3,3,3,
{6}6b/E4/B4/A4f,1b/B6/Cf,7b/B8/E1/B1f,2b/A5/B6/E6f,8b/B1/C/B2f,3b/A7/E7f/B7h[12:11],
{12},,,,,,,,,{4}C,
1b/8b-5[8:1],{12}8-3[8:1],2,1,8-4[8:1],6,7,8,3,2,
{4}7b/1b-4[8:1],{12}1-6[8:1],7,8,1-5[8:1],3,2,1,6,7,
{4}8b/4b-1[8:1],{12}4-7[8:1],6,5,4-8[8:1],2,3,4,,,6b/2b,
6/2,6/2,6/2,,8/4,8/4,{24}7,6,5,4,{12}3/2,,17,
{4}6b/2b>5[8:1],{12}2<7[8:1],7,6,2-6[8:1],5,6,2,,,{4}3b/7b<4[8:1],
{12}7>2[8:1],2,3,7-3[8:1],4,3,7,,2,
{4}8b<5[8:1]/2b>5[8:1],8/2,{6}6b/4b,{12}8,7/1,2/6,5/3,
{6}4bx,{12}7/3,7/3>6[4:1],{6}7/3,B8/B1/E1,{12},5w1b[8:1],5,5,
{4}5b,{12}3/7h[6:1],{24},,2,3,{6}4/6h[6:1],{24}1,2,{12}3/5h[6:1],{24},,8,1,
{4}4b/2,{12}6/2h[6:1],{24},,7,6,{6}5/3h[6:1],{24}8,7,{12}6/4h[6:1],{24},,1,8,
{4}5b/7,{12}6/2h[6:1],{24},,1,8,{6}4/7h[6:1],{24}8,1,{12}5/2,{24}3,4,3,4,
{6}3,{24}1/2,3/8,{12}4/7,{24},,8/7,6/1,{6}5/2,{24}8/1,2/7,{12}6/3,,4/5,
{6}3b/6b,{12}7,8/6,7/1,2/8,{32}1/3,4,5,6,7,8,1,2,{4}3b/7b,
{12}8b/2b,8/2,8/2,7b-5[8:1]/1b-5[8:1],1/7,1/7,{4}7b-3[8:1]/1b-3[8:1],1b/7b,
{6}5b/B7/E7/B6/A6/D7/A7,4b/A2/B2/B3/E3/D3/A3,{12},,8b/4b,4/8,{3}4/8h[3:1],
{48}1bh,2h/7h,3h/6h,4h/5h,{12}D5f,,,,,{6}6x,6x/B3h[6:1]/E3h[6:1]/B2h[6:1],6x,
8b/1bh[6:1],{12}6,6/1h[6:1],,,{6}4/1h[6:1],{12}5,6/1h[6:1],{6}7,
2/8h[6:1],{12}3,3/8h[6:1],,,{6}5/8h[6:1],{12}4,3/8h[6:1],{6}2,
7/1h[6:1],{12}5,5/1h[6:1],,,{6}2/8h[6:1],{12}4,5,4,5,
4-8[8:1],4,4,4,,,D8,D7,D6,D2,D3,D4,
{6}8b-4[8:1],{12}2,2/8-6[8:1],,,{6}1/8-4[8:1],{12}3,3,,,{6}5/1b-5[8:1],
{12}7,7/1-3[8:1],,,{6}8/1-5[8:1],{12}6,6,,,{6}7b/2b,
7/2,{3}2h[3:1]/7h[3:1],{12},{4}5bx/4bx>5[4:3],
{1}Ch[4:3],
{6}4xh[6:1],{12}5xw1b[8:1],4x,,B5f,,,,6/4,,7,
{6}7/3-8[8:1],{12}3,3/5-1[8:1],,,{6}5b/2>5[8:1],{12}2,2/7,,,{6}8p4[8:1],
{12}8,8/3-7[8:1],,,{6}3b/6v1[8:1],{12}6,6/2,,,8/3,
3/8,,7p4[4:1]b,,2,{4}7x,Cf,
{6}8/1h[6:1],{12}4,5/2-6[8:1],,,{4}2b/7h[4:1],4,
{6}1/8h[6:1],{12}5,4/7-3[8:1],,,{4}7b/2h[4:1],5,
{12}4/3,4/3h[6:1],,E2/B1,,7x,5/6,5/6h[6:1],,E8/B8,,2x,
{4}1bx-5-7[8:3]/8bx-4-2[8:3],,,3x-7b[8:1],
{6}3b/5b`Cf,5,
E
