&title=イエロウ
&artist=NOMELON NOLEMON
&first=0.02
&des=さよなら、いつまでも
&lv_5=13
&inote_5=(87)
{4},,,,,,,,,,,,,,,,,,,,
{8}5-8[8:2],,,,4>1[8:1],1v3[16:3],,,
{8}4q8[8:2],,,,2p6[8:1],6qq4[16:3],,,
{8}5<3[8:3],,,,4v1[8:1]*v7[8:1],,,,
{8}6h[8:1],8,1h[8:1],3,4h[8:1],6,7h[8:1],1,
{24}8-6[8:1],,8,,,,5-1[8:1],,5,,,,2-4[8:1],,2,,,,4,,5,,,,
{8}7h[8:1],1,2h[8:1],4,5h[8:1],7,8h[8:1],2,
{24}1-3[8:1],,1,,,,4-8[8:1],,4,,,,7-5[8:1],,7,,,,5,,4,,,,
{8}3h[8:1],8,1h[8:1],6,7h[8:1],4,5h[8:1],2,
{24}1-7[8:1],,1,,,,6-2[8:1],,6,,,,3-5[8:1],,3,,,,5,,6,,,,
{8}3h[8:1],8,1h[8:1],6,7h[8:1],4,5h[8:1],2,
{24}8-2[8:1],,8,,,,3-7[8:1],,3,,,,6-2[8:1],,6,,,,3,,4,,,,
{24}36,,,,,4,5,,,,,,,,,4,,,36,,,,,,
{8}2x>5[8:1],4,2/6pp5[8:2],7,4,{24}3x,,,,,2x/4x,,,,
{8}1-4[8:1]/5,6,1-6[8:1],8,,3,1pp1[16:3]/5,,
{8}4<8[8:1],5,8p4[8:1]*<4[8:1],1,,,26,5,
{8}3x>8[16:3]/4,1x<6[16:3],7x<4[16:3],5x>2[16:3],E2,E1,E8,E7,
{8}5x<8[16:3]/4,7x>2[16:3],1x>4[16:3],3x<6[16:3],E7,E8,E1,E2,
{8}3^8[8:1]/8^5[8:1],,,,4pp7[8:2],25,3qq4[8:2],,,,8,,
{8}56,74,3/8p4[8:1],12,4bp8[8:1],3,1xp5[8:1],2,5p1[8:1],6,8x-4[8:1],7,
{12}1w5[8:1],1,1,,,,54,{24}4-1[8:1],5,,,6x/3x,,,,,,
{8}7-4[8:1],56,7,3-7[8:1],25,3,6<2[24:4],1>4[8:1],,,1V36[8:2],1V74[8:2]/5,,,,,
{24}2-5[8:1]/6,,5,4,,,{8}2,8-3[8:1],6-1[8:1],8,,2,
{24}7-4[8:1]/3,,4,5,,,{8}7,1-6[8:1],3q5[8:2],1,,7,
{8}6<3[8:2],6/5,C,,6<3[8:2],6/4,C,,
{8}E5,{24},,C,B6/B3/E3/E7,,,,,E1,A8/A1/E2/E8/B1/B8/B2/B7/A2/A7/D1/D2/D8,,,,,,8b<2b[8:2]/1b,,,,,,
{8}2>8[8:2]/D1f,,8qq1[8:2],,4,,{24}3>5[8:2],,3,8,,,
{8}5<3[8:2]/3,,3qq5[8:2],,7,,6-2[8:1],58,4<8[8:1],4,3-7[8:1],1,2>6[8:1],2,6q3[8:1]*<3[8:1],8,
{8},,{24}4,,2,1,,7,{8}8z4[16:3],6,5<3[8:2],,
{8}3bqq4[8:2]/5b,,4>6[8:2],,1,,{24}2>8[8:2]*>8[8:2],,1,5,,,
{8}8pp6[8:2]*pp6[8:2]/2,,6<4[8:2]*<4[8:2],,5,,
{24}7,,6x,5h[12:1],,A7/B7,
{24},,1,8h[12:1],,B2/A2,,,5,3h[12:1],,A8/B8,,,4,6h[12:1],,A1/B1,
{8},73,
{8}5pp5[16:3]/8,1pp1[16:3]/4,,,4xpp5[16:3]*qq3[16:3],4x,,,
{8}4h[8:1],1,8h[8:1],2,1h[8:1],6,5h[8:1],8,
{24}1-6[8:1],,2,,,,7-3[8:1],,8,,,,4-1[8:1],,5,,,,6,,5,,,,
{8}5h[8:1],8,1h[8:1],7,8h[8:1],3,4h[8:1],1,
{24}8-3[8:1],,7,,,,5-1[8:1],,4,,,,6-3[8:1],,7,,,,2,,1,,,,
{8}4h[8:1],1,2h[8:1],7,8h[8:1],5,6h[8:1],3,
{24}5-1[8:1],,4,,,,7-4[8:1],,6,,,,3-6[8:1],,2,,,,4,,5,,,,
{24}5,,8,7,,2x,6x,,5x,7x,,1x,{8}1bq5[32:3]/8bp4[32:3],7bp1[16:3]/2bq8[16:3],,,
{8},,,,{24},,,2x,3x,4x,{32}5x/6x,,,7x,,,8x,,
{8}1v4[8:1],24,1x/5x,{24}8,,7,7pp2[8:2],,,65,,,27,,,,,,
{24}3,,3,4,,6,5x,,,8,,5,7pp2[8:2],,5,3,,,27,,,,,,
{8}4xh[8:1],{24}1,,2xh[8:1],,,6,8xh[8:1],,,{8}5V71[8:1],6/1V35[8:1],53,,
{8}1s5[16:3],68,E7/B6,,7qq8[16:3],13,E3/B2,,
{8}2<6[8:1],1/6v4[8:1],B5/E5,,7-5[8:1],8-4[8:1],7,8,
{8}1h[8:1],2h[8:1],B8/B7,3>5[8:2]/4,1h[8:1],3,B3/B4,2h[8:4],
{8}D4/A3,D2/A1,D6/A5,D8/A7,4p8b[8:1]/8p4b[8:1],48,4pp7[8:7]/8pp3[8:7],,
{8}A2/B2/Cf/B6/A6,,,,,,,,
{24}1,,6,5,,3,{8}4>7[16:3],2h[8:1]/6,4,,{24}3p7[8:1],,1,8,,,
{24}6q2[8:1]/3,,,,,6,4v7[8:1],,,,,4,6pp5[16:3],,,,,6,5,,,3,,1,
{24},,7,8,,6,5,,1,2,,{48}E4,E5,{24}E6,,37,,,E2,E3,,E8,E7,,B4/B5,
{24}8V25[16:3],,7,4,,2h[8:1]/8,,,,,,1,,,6,4v6[8:1],,8,5,4,3,2h[12:1],,,
{24},,3,4,,2,1,,7,8,,6,1>4[8:1],,,37,,,5,6,7,8h[8:1],,,
{8}6-1[8:1],5,8-3[8:1],7,2-5[8:1],1,4-7[8:1],3,
{8}1-4[8:6],1,C,,,5,E5,,
{8}5-8[8:6],5,C,,,1,{24}E1,,1,,,,
{8}2q6[8:6],2,C,,,4,C,,
{8}7,7,C,6,5q7[16:4],1,2,,
{8}4,3,6<2[8:2],5,2<6[8:2],3,4,3,
{8}2,1,7>3[8:2],8,3>6[8:2],4,5,4,
{24}2h[12:1],,4,3,,,46,,,7,,5,8,,1,7,,2,6,5,8,3,4,1,
{24}2x-5[32:3]/7x-4[32:3],,8,1,,8,2b<6b[16:3]/7b>3b[16:3]/Cf,,,,,,E2/E8/A2/A7/D2/D8,,,,,,4qq6[8:2],,3,5,,,
{8}6<3[8:2]/4,,3>5[8:2],,8,,
{8}1-5[8:1],27,4<7[8:1],4,8-4[8:1],2,5>2[8:1],5,1p4[8:1]*q6[8:1],7,
{8}1,,{24}5,,3,1,,2pp4[16:3],{8}7qq5[16:2],45,,,
{24}1v4[32:3],,2,4,,,1v6[32:3],,7,5v2[32:3],,,1,,,5,,,4v1[32:3],,3,8h[12:1],,,
{24}4v7[32:3],,5,2,,,4>5[8:2]*q5[8:2],,3,6,,,4b,,,,,,,,
{24}3,4h[12:1],,A2/B2,,,8,1h[12:1],,B7/A7,,,4,6h[12:1],,A1/B1,,,5,3h[12:1],,A8/B8,
{8},12,
{8}7/8-3[8:1],6/5-2[8:1],8<2[8:2]*<5[8:1],5,8b,1b,7b,5b,
{24}3h[8:1]/4h[8:1],,,,,,5h[8:1]/6h[12:1],,,,,7,8pp2[8:1]*qq6[8:1],,1,8,,,,,,,,,
{8}1h[8:2],3,4,5,{48}6-4[8:1],5,,,,,{8},,,1xpp4[4:6]*qq6[4:6],,,,,,,,,,,,,,,,
{8}4h[8:5],,3,,,5h[8:1],6,,8h[8:5],,7,,,1v6[8:1]*v4[8:1],2,,
