&title=Sis puella magica!
&artist=梶浦由記
&first=0
&des=luvlily
&lv_5=12
&inote_5=(148){1},
{16},,,,,,,,,,,,,,,,
{16},,,,,,,,,,,,,,,,
{16},,,,,,,,2qq6[32:27]/3v5[32:30],,,,,,,,
{16},,,,,,,,,,,,,,,,
{16}6-2[32:25]/5v3[32:25],,,,,,,,,,,,,,,,
{16},,,,,,,,2qq7[32:28],,,,,,,,
{16},,,,,,,,,,,,,,,,
{16}2pp4[32:21]/7qq5[32:21],,,,,,,,,,,,,,,,
{16},,,,,,,,1V75[32:25]/7-3[32:26],,,,,,,,
{16},,,,,,,,,,,,,,,,
{16}1>5[32:25]*<5[32:25],,,,,,,,,,,,,,,,
{16},,,,,,,,4V26[32:25]/6V84[32:25],,,,,,,,
{16},,,,,,,,,,,,,,,,
{2048}2V84[32:25],1-5[32:27]*-5[32:27],
{1024},{512},{256},{128},{64},{32},
{16},,,,,,,,,,,,,,,
{16},,,,,,,,8,,,,1h[2:1]/7,,,,
{16},,,,3,,,,4h[2:1]/2,,,,,,,,
{16}6,,,,5/7V53[32:21]*q1[32:20],,,,,,,,,,,,
{16},,,,,,,,4,,,,5h[2:1]/3,,,,
{16},,,,7,,,,8h[2:1]/6,,,,,,,,
{16}2,,,,1/3V58[32:21]*p1[32:20],,,,,,,,,,,,
{16},,,,,,,,2,,,,3h[4:1]/4h[4:1],,,,
{16},,,,6,,,,7h[4:1]/5h[4:1],,,,,,,,
{16}2h[2:1],,,,1,,,,8,,,,7h[2:1],,,,
{16}6,,,,5,,,,4h[2:1],,,,3,,,,
{16}2,,,,1,,,,28,,,,37,,,,
{16}45,,,,25,,,,3,,3,,4<8[8:3],,,,
{16}2,,,,1,,,,2,,,,47,,,,
{16}6,,6,,5qq3[8:3],,,,8,,,,7,,,,
{16}6<6[32:62],5,4z8[32:62],,,,,,,,,,,,,,
{16},,,,,,,,,,,,,,,,
{16},,,,,,,,,,,,,,,,
{16}2,,,,3,,,,4qq2[32:8],,,,74,,,,
{16}6,,,,5<1[16:5],,,,25,,,,3,,,,
{16}4>8[16:5],,,,4/8,,,,6,,,,7qq5[32:8],,,,
{16}17,,,,2,,,,3<7[16:5],,,,36,,,,
{16}8,,,,2<5[32:10]*pp4[32:10],,,,2,,,,,,,,
{16},,,,1,,8,,37,,,,4/6pp8[4:1],,,,
{16}65,,,,4,,,,2<6[32:9],,,,2/8-5[16:3],,,,
{16},,,,4pp6[4:1],,,,34,,,,2,,,,
{16}8>4[32:9],,,,2-7[16:3]/8,,,,,,,,5qq3[4:1],,,,
{16}56,,,,8,,,,2>6[32:9],,,,8-5[16:3]/2,,,,
{16},,,,1>6[32:16],,,,8pp2[4:1],,,,,,,,
{16},,,,48,,,,3,,5,,1,,7,,
{16}2/8q5[16:5],,,,3,,,,,,1,,1^6[4:1],,,,
{16}6qq4[4:1],,,,4qq2[32:10],,,,6,,,,8,,,,
{16}13,,,,4h[4:1],,,,5,,,,27,,,,
{16}1/3p2[8:4],,,,7,,,,,,5,,6^1[4:1],,,,
{16}1p4[4:1],,,,4pp6[32:10],,,,1,,,,2,,,,
{16}35,,,,7h[4:1],,,,6,,,,58,,,,
{16}37,,,,1-5[4:1],,,,,,6,,6,,,,
{16}81,,,,2qq8[4:1]/7,,,,8^2[16:3],,,,,,,,
{16}6qq4[4:1],,,,4^6[16:3],,,,,,,,8pp2[4:1],,,,
{16}2^8[16:3]*^4[16:3],,,,,,,,,,,,4,,,,
{16}35,,,,26,,,,17,,,,28,,,,
{16}37,,,,5,,4,,6,,5,,8,,,,
{16}28,,,,17,,,,26,,,,3,,4,,
{16}3,,5,,1,,,,3qq6[8:5]/7,,,,,,,,
{16},,,,8,,,,7,,,,4,,,,
{16}6pp3[8:5]/2,,,,,,,,,,,,1,,,,
{16}2,,,,3,,,,4/5h[2:1],,,,,,6,,
{16}6qq4[4:1],,,,4^6[4:1],,,,6pp8[4:1],,,,8<4[8:3]*>4[8:3],,,,
{16},,,,,,,,,,,,8,,1,,
{16}7,,2,,36,,,,7/4qq7[8:5],,,,,,6,,
{16}6,,,,8,,,,1,,,,2h[4:1],,,,
{16}5pp2[8:5],,,,3,,3,,4,,,,3,,,,
{16}1,,,,28,,,,45,,,,7,,8,,
{16}6,,,,46,,,,2,,4,,3,,,,
{16}6qq4[8:3]/5qq3[8:3],,,,65,,,,,,,,,,,,
{16}45,,3,,6,,1,,27,,,,4q1[2:1]/3,,,,
{16},,1,,2,,3,,4<1[2:1],,,,,,1,,
{16}2,,3,,4^1[4:1]*^7[4:1],,,,,,,,,,,,
{16}18,,2,,6,,4,,57,,,,4/8qq6[8:3],,,,
{16},,3,,2,,1,,8>5[2:1],,,,6,,,,
{16}8,,7,,6q1[2:1]*qq7[2:1],,,,,,,,,,,,
{16},,,,2,,1,,38,,,,2h[2:1]/6,,,,
{16},,3,,3qq1[4:1],,,,1^3[16:3],,,,,,,,
{16}4q1[4:1],,5,,6,,7,,8,,,,8q5[4:1],,1,,
{16}2,,3,,4,,,,3p6[4:1],,2,,1,,8,,
{16}7,,,,7p2[4:1],,6,,5,,4,,3,,,,
{16}2qq1[32:7]/7pp8[32:7],,,,2qq5[2:3]/7pp4[2:3],,,,,,,,,,,,
{16},,,,,,,,,,,,,,,,
{16},,,,,,,,,,,,,,,,
{16}6h[4:3],,,,,,,,,,,,5h[4:3],,,,
{16},,,,,,,,4h[4:3],,,,,,,,
{16},,,,1,,,,2,,,,3,,,,
{16}8h[4:3],,,,,,,,,,,,2h[4:3],,,,
{16},,,,,,,,5h[4:3],,,,,,,,
{16}1,,,,1,,,,6,,5,,8,,2,,
{16}15,,,,4,,8,,6,,,,37,,,,
{16}1,,5,,2,,,,4pp6[4:1],,7,,6pp8[4:1],,5,,
{16}4,,,,4qq2[4:1],,1,,2qq8[4:1],,3,,4,,,,
{16}5pp7[4:1],,8,,7pp1[4:1],,6,,5,,,,5qq3[4:1],,2,,
{16}3<1[2:1],,4,,5,,,,2,,,,3,,3,,
{16}21,,,,7,,8,,6,,6,,45,,,,
{16}1^4[16:3],,,,7,,6^1[16:3],,,,4,,3^6[16:3],,,,
{16}1,,8,,,,6,,5/4,,3,,2,,1,,
{16}8,,7,,56,,4,,3,,2,,1,,8,,
{16}67,,5,,4,,3,,2,,1,,78,,6,,
{16}5,,4,,3,,,,3,4,5,6,,,,,
{16},,,,,,,,,,,,,,,,
{16},,,,,,,,,,,,,,,,
{16},,,,,,,,,,,,,,,,
{16},,,,,,,,,,,,,,,,
