&title=有明/Ariake
&artist=SIINCA
&first=0
&des=NOOKA
&lv_6=14+
&des_6=
&inote_6=(190)
{16},,,,
,,,,
,,,,
,,,,
{16}3-5v4-6[4:3],,,,
,,,,
,,,,
,,,,
{16}7-1v8-2b[4:3],,,,
,,,,
,,,,
,,,,
{16}3-7V15[4:5],,,,
,,,,
B6h[1:1]/E7h[4:5]/E6h[2:3],,,,
,,,,
{16},,,,
,,,,
,,,,
,,,,
{16}2-8v1-7[4:3],,,,
,,,,
E5,,,,
,,,,
{16}6-4v5-3b[4:3],,,,
,,,,
E1,,,,
,,,,
{16}1-5V38[1:1],,,,
,,,,
B7,,,,
,,,,
{16}8>7[8:5],,,,
,,,,
,,,,
,,,,
{16}8xh[4:3],,E7,,
E6,,E5,,
E4,,E3,,
E2,,E1,,
{16}7xh[4:3],,E6,,
E5,,E4,,
E3,,E2,,
E1,,E8,,
{16}6xh[4:3],,E5,,
E4,,E3,,
E2,,E1,,
E8,,E7,,
{16}5xw1[4:1],,,,
,,,,
,,,,
,,,,
{16}1xh[8:3],,E3,,
E4,,E5,,
2xh[8:3]/E6,,E7,,
E8,,E1,,
{16}3xh[8:3],,E5,,
E6,,E7,,
4xh[8:3]/E8,,E1,,
E2,,E3,,
{16}5xh[8:3],,E7,,
E8,,E1,,
E2,,E3,,
E4,,E5,,
{16}7x>7b[4:3],,,,
,,,,
,,,,
,,,,
{16}Ch[1:1],,,,
,,,,
,,,,
,,,,
{16}E7h[1:1],,,,
,,,,
,,,,
,,,,
{16}E5h[1:1],,,,
,,,,
,,,,
,,,,
{16}E1h[1:1],,,,
,,,,
,,,,
,,,,
{16}2h[1:1],,,,
,,,,
,,,,
,,,,
{16}4h[1:1],,,,
,,,,
,,,,
,,,,
{16}5h[1:1],,,,
,,,,
,,,,
,,,,
{16}8<8b[2:1]*>8[2:1],,,,
,,,,
,,,,
,,,,
{16}2h[8:1],,3h[8:1],,
4h[8:1],,1h[8:1],,
3h[8:1],,4h[8:1],,
8h[8:1],,3h[8:1],,
{16}4h[8:1],,7h[8:1],,
3h[8:1],,4h[8:1],,
6h[8:1],,3h[8:1],,
4h[8:1],,,,
{16}7h[8:1],,6h[8:1],,
5h[8:1],,8h[8:1],,
6h[8:1],,5h[8:1],,
1h[8:1],,6h[8:1],,
{16}5h[8:1],,2h[8:1],,
6h[8:1],,5h[8:1],,
3h[8:1],,6h[8:1],,
5h[8:1],,,,
{16}2h[8:1],,4h[8:1],,
5h[8:1],,7h[8:1],,
5h[8:1],,4h[8:1],,
2h[8:1],,4h[8:1],,
{16}5h[8:1],,7h[8:1],,
5h[8:1],,4h[8:1],,
2h[8:1],,4h[8:1],,
5,,,,
{16}7h[8:1],,5h[8:1],,
3h[8:1],,2h[8:1],,
4h[8:1],,6h[8:1],,
7h[8:1],,5h[8:1],,
{16}3h[8:1],,2h[8:1],,
4h[8:1],,6h[8:1],,
7h[8:1],,5h[8:1],,
3h[8:1],,1,,
{16}8/1,,,,
4/7,,,3,
4,,2/5,,
,6,5,,
{16}1/8,,,,
5/2,,,6,
5,,7/4,,
,3,4,,
{16}8/1,,,,
4/7,,,3,
4,,2/5,,
,6,5,,
{16}2,4,4,,
7,5,5,,
2,2,8,8,
5,5,6,6,
{16}1,,1,8,
1,,1,,
1/7,,1/7,,
6/1,,6/1,,
{16}5,,5,4,
5,,5,,
5/2,,2/5,,
1/5,,1/5,,
{16}1/5,6/2,7/3,8/4,
1,2,3,4,
5/1,6/2,7/3,8/4,
1/5,,7xs3b[16:7]/3xV15-7[16:7],,
{16},,,,
,,,,
,,,,
,,,,
{16}2-6b[8:1]/6-2[8:1],,,,
,,,,
4/8,8,,5/2,
2,,6/4,6,
{16},3/5,3,,
8/1,,2/7,,
5/1,1,,4/7,
7,,3/5,3,
{16},6/4,6,,
1/8,,7/2,,
2/5,4x/3x,,7/4,
{32}5x/6x,,,,2x/5x,3x,4x,,
{32},,7x/4x,6x,5x,,,,
1x-5b[8:1]/5x-1[8:1],6x/2x,3x/7x,4x/8x,,,,,
{16},,,,
,,,,
{32}8/1,7/2,3/6h[16:7],4,5,,,,
{16},,,,
7h[8:3],,,,
,,8h[8:3],,
{16},,,,
1h[8:3],,,,
,,2h[8:3],,
,,,,
{16}C,,,,
E1,,E5,,
2h[8:3],,,,
,,1h[8:3],,
{16},,,,
8h[2:1],,,,
,,,,
{32}6x,5x,4x,3x,2x,1x,8x,7x,
{16}6bx-1-7b[16:3],,,,
6/2-5-3[16:3],,,,
2,,,,
6V85b[16:3],,2,,
{16}2V41[16:3],,,,
2,,,,
8h[4:1],,,,
{32},7x/1x,2x/6x,3x/5x,4x,,,,
{16}Cf,,,,
7-4[8:1],,4-6[8:1]*-8[8:1],,
7,,,,
,,1,,
{16}1-5[8:1],,5-2-4-8b[8:3],,
1,,,,
8w4[8:1],,,,
,,,,
{16}Cf,,,,
7-4[8:1],,4-6-1[4:1],,
7,,,,
3V14b[16:3],,3,,
{16}7V58[16:3],,,,
7,,,,
1h[4:1],,,,
{32},2x/8x,7x/3x,6x/4x,5x,,,,
{16}Cf,,,,
5/2,,3/6,,
4/7,,3-5-1b[8:3]/6V47[8:3],,
2/5,,,,
{16},,,,
,,,,
{24}1bx/8bxz4b[16:3],2x/7x,3x/6x,4x/5x,,,
{16},,,,
{16}2h[4:1],,4,,
5,,2,,
7h[4:1],,5,,
4,,7,,
{16}2h[4:1],,4,,
5,,2,,
1b,,8,,
7/4,,3/6,,
{16}2<7[8:1],,2,,
4,,5,,
6<1[8:1],,6,,
4,,3,,
{16}2,,1,,
8,,7,,
2,,1,,
8,,7,,
{16}2h[2:1]/6h[2:1],,,,
,,,,
{32},3x/7x,8x/4x-1[8:1],5x/1x,,,,,
{16}B7,,C,,
{16}4x-7[8:1],,,,
B1,,C,,
5xqq1[8:3],,,,
,,,,
{16}8xh[4:3],,,,
,,,,
,,,,
,,,,
{16},,2,5,
3x,3x,7,5,
6x,6x,1b,,
1b,,,,
{16}4b,,3,3h[8:1],
,5,,5,
4,,6,5,
7,5,7h[8:1],,
{16}4,7,5,6,
2,4,3,5,
1,,,,
3,8,3,8,
{16}5,,6,6h[8:1],
,5,,6,
5,,3,4,
2,4,2h[8:1],,
{16}1,2,8,1,
6,7,4,3,
1,2,8,1,
6,7,4,3,
{16}1,,8,8h[8:1],
,1,,2,
8,,3,7,
5,6,5h[8:1],,
{16}7,5,8,2,
4,1,7,5,
6,,,,
6,1,6,1,
{16}4,,3,3h[8:1],
,4,,3,
4,,6,5,
7,5,7h[8:1],,
{16}8,7,1,8,
3,2,5,6,
8,7,1,8,
3,2,5,6,
{16}8>7[4:3],,,,
,,,,
,,,,
,,,,
{16}1V35v4-6[4:3],,,,
,,,,
,,,,
,,,,
{16}2>1[4:3],,,,
,,,,
,,,,
,,,,
{16}3V57v6-8[4:3],,,,
,,,,
,,,,
,,,,
{16}3,,1,,
3h[4:1],,,,
4,,6,,
4h[4:1],,,,
{16}5,,3,,
5h[4:1],,,,
6,,8,,
6h[4:1],,,,
{16}7,,5,,
7h[4:1],,,,
8,,2,,
8h[4:1],,,,
{16}1,2,3,4,
{32}5x,4x,3x,2x,1x,8x,7x,6x,
{16}5x-1[8:1],,,,
1xw5b[8:1],,,,
{16}Cf/B8/A8/B4/A4/A2/B2/B6/A6,,,,
,,,,
,,,,
,,,,
{16},,,,
,,,,
,,,,
,,,,
{16}E6h[1:1]/4>5<4b[2:7],,,,
,,,,
,,,,
,,,,
{16}E5h[1:1],,,,
,,,,
,,,,
,,,,
{16}E4h[4:7],,,,
,,,,
,,,,
,,,,
{16},,,,
,,,,
,,,,
,,,,
{16}E2h[1:1]/8x<1b[2:5],,,,
,,,,
,,,,
,,,,
{16}E3h[1:1],,,,
,,,,
,,,,
,,,,
{16}E4h[1:1],,,,
,,,,
,,,,
,,,,
{16}E5h[1:1],,,,
,,,,
,,,,
,,,,
{16}1bqq6b[4:3],,,,
,,,,
4x,,,,
,,,,
{16}8xpp3b[4:3],,,,
,,,,
5x,,,,
,,,,
{16}1xqq6b[4:3],,,,
,,,,
4x,,,,
,,,,
{16}8x,,7x/Cf,,
,,1x,,
2x/Cf,,,,
5x/4x>6pp2[2:3],,,,
{16}8x<3q5b[4:5],,,,
,,,,
,,,,
,,,,
{16},,,,
,,,,
,,,,
8,,,,
{16}6/1-4b[4:1],,,,
,,,,
8-5b[4:1],,,,
,,,,
{16}Cf,,,,
,,2x/7x,,
E1f,,,,
,,,,
{16}5/4qq5b[2:1],,,,
,,,,
E6,,C,,
E2,,,,
{16}4/5pp4b[2:1],,,,
,,,,
E4,,C,,
E8,,,,
{16}7/4qq7b[2:1],,,,
,,,,
E1,,C,,
E5,,,,
{16}2/5pp2b[2:1],,,,
,,,,
E1,,C,,
E5,,,,
{24}1bx,2x,3x,4xh[8:3],,,
{16},,,,
E6,,C,,
E7,,E1,,
{24}8bx,7x,6x,5xh[8:3],,,
{16},,,,
E4,,C,,
E3,,E1,,
{24}2bx,3x,4x,5xh[8:3],,,
{16},,,,
E7,,C,,
E8,,E2,,
{24}7bx,6x,5x,4xh[8:3],,,
{16},,,,
E3,,C,,
E2,,E8,,
{24}1x,,,5,4,6,
{16}5,,7,,
{24}4,5,3,4,,,
1,,,7,6,7,
{16}5,,8,,
{24}2,3,2,4,,,
1,,,6,5,8,
{16}5,,7,,
{32}7bx,,,,2x,3x,4x,8x,
1x,2x,,,3bx,,,,
7x,6x,5x,1x,8x,7x,,,
6bx,,,,3x,2x,1x,5x,
{32}4x,3x,,,2bx,,,,
6x,7x,8x,4x,5x,6x,,,
{16}1bx/8x,,7bx/2x,,
3bx/6x,,4x/5bx,,
{32}1bx,2,3,4,8,7,6,5,
1bx,2,3,4,8,7,6,5,
1bx,2,3,4,5,6,7,8,
6bx,5,4,3,2,1,8,7,
{32}2bx,3,4,5,6,7,8,1,
7bx,6,5,4,3,2,1,8,
4bx,7,6,5,4,3,2,1,
4bx,7,6,5,4,3,2,1,
{16}8x,6x,7x,3x,
5x,4x,1x,3x,
{24}8x,4,8,4,8,4,
8-4b[8:1],4,8,4,8,4V25-1-6-8-4[24:19],
{16}8b,,,,
,,,,
,,,,
4bw8b[8:1],,,,
{16}A7/B7/B3/A3/A1/B1/B5/A5/Cf,,,,
,,,,
,,,,
,,,,
{16},,,,
,,,,
,,,,
,,,,
{16},,,,
,,,,
,,,,
,,,,
{16},,,,
,,,,
,,,,
,,,,
{16}7-1v8-2[4:5],,,,
,,,,
,,,,
,,,,
{16},,,,
,,,,
,,,,
,,,,
{16}3-5v4-6b[4:5],,,,
,,,,
,,,,
,,,,
{16},,,,
,,7,8,
1,2,3,4,
{32}5xw1b[8:1],4x,3x,2x,1x,8x,7x,6x,
{16}5bx,,,,
,,,,
,,,,
,,,,
E
