&title=我的甜蜜
&artist=熊二
&first=0.09
&des=熊三
&lv_5=12
&inote_5=(115)
{8},
{16}3pp4[8:1],,,,,,,,,,,
{16}7?s3[8:6]*?s3[8:6],,,,,,,,,,,,,4?v3-1[2:1]*?v3-1[2:1],,,,,,,,,,,,,,
{12}7-4[8:1]/8,,5,7,,3,3qq4[4:1],,,
{16}5,,,,6-3b[16:1],,7-2[16:1]*-2[16:1],,,,4,,
{16}3/5qq5[16:3]*pp5b[16:3],,,,,,,,
{16}2<7[8:1],,,,6q3[8:1],,,,4q5[16:3],,,,6h[4:1],,6?-3b[8:3],,,,,,,,,,
{12}2-5[8:1],,4,2,,,
{16}6pp4[4:1],,5,,,,3>6[2:1]*p6[2:1],,,,,,,,,,,,,{16},
{16}3h[16:3],,,4,2-7[16:1]*-7[16:1],,3-6b[16:1],,,,1pp4[4:1]*qq6[4:1],,,,,,,,,,
{16}5-1[8:1]/4-2[8:1],,,,5<4[8:3],,,,,,,,,,2?v3[8:1]/3?v2[8:1],,,,Cf,,,,,,
{16}1/2-5[8:1],,,4,2,,,6,6pp5[4:1],,,,4,,,,3-8[16:1],,4-7[16:1],,,,1,,
{16}2h[16:3],,,7-3b[16:1],1-5b[16:1],,,,,,
{16}6,,6>3[8:1]/5,,,,1-4[8:1],,,,8-5[8:6],,,,,,,,,,,,,,,,4<7[8:1]*>1[8:1],,,,,,,,
{16}7>2[8:1],,,,3p6[8:1],,,,5qq5[8:5]*pp5[8:5],,,,,,,,,,,,,,,,
{16}3-6[16:1]/7-2[16:1],,,,,,
{16}8,,8<5[8:1]*>3[8:1],,,,8,,,,
{16}4h[16:3],,,5,3,,
{24}2,4,2,4,2,4,2,,,1-6[8:1]*-4[8:1],,,,,,1b,,,,,,,,,
{16}5,,5-8[8:1]/4-1[8:1],,,,54,,,,
{12}2/4>1[8:1],,5,4<7[8:1],,2,2pp1[16:3],,8,8<4[16:3]*p3[16:3],,,
{8}8,,
{8}2,2p5[8:1]/1<6[8:1],,2/1pp1[16:3],,,
{12}7h[6:1],,8,8<5[8:1],,1,8>3[8:1],,6,6pp3[4:1],,,5,,,
{8}1,2-5b[8:1]/8-4b[8:1],,2/8V62[16:3],,,
{12}1>4[8:1],,8,1<6[8:1],,3,3,,4,4q1[8:1]/5p8[8:1],,,45,,,27,,3,
{8}3-1[8:1]/4-8[8:1],,3-7[8:1]/4-6[8:1],,
{12}34,,1,1-4[8:1],,,5,,6,6pp3[4:1],,2,2b,,,
{8},
{16}4,,4-1[8:1]/5-8[8:1],,,,45,,,,
{12}7/5<8[8:1],,4,5>2[8:1],,7,7qq8[16:3],,1,1>5[16:3]*q6[16:3],,,
{8}1,,
{8}7,7q4[8:1]/8>3[8:1],,7/8qq8[16:3],,,
{12}2h[6:1],,1,1>4[8:1],,8,1<6[8:1],,3,3qq6[4:1],,,4,,,
{8}7,6<2[16:3]/5q3[16:3],,56,,,
{12}5/4<7[8:1],,2qq5[16:4],2,,8b,,,,,
{24}1>4[8:1]/8<5[8:1],,,4b/5b,
{8},,
{12},,4,5/4-8[8:1],,,4V25[4:1]/6V85[4:1],,,,,,,,,
{12}6h[6:1],,4,5pp4[4:1],,3,3,,,2h[6:1],,4,3-7[8:1],,,3qq4[16:3]/5pp4[16:3],,,,,,
{12}6<1[8:1],,5,6,,,1/2-6[8:1],,4,2b,,,,,1,1p5[8:1]/8<6[8:1],,,8q4[8:1]/1>3[8:1],,,18,,,
{12}6h[6:1],,5,5qq6[16:3],,,35,,1,1>4[8:1],,8,1<6[8:1],,3,3,,,
{8}4q5[8:5]/5<4[8:5],,4b/5b,,,,,,
{12}E4,,E1/E6,,
{8}1?v4[8:1]/7?v4[8:1],
