&title=孤独なHeaven
&artist=小泉花陽(CV.久保ユリカ)
&first=-0.04
&des=桜島 凛陽
&lv_1=4
&lv_5=13
&lv_7=14?
&inote_5=(144)
{1},,{16},,,,
5h[8:3],,,,,,4p2[8:3],,,,,,,,5,,
6h[8:3],,,,,,2q4[8:3],,,,,,,,6,,
7h[8:8],,,,,,3h[8:5],,,,,,,,,,
,,3,4,3,,4b/5b,,2,6,4,8,3,7,1,,
1-5[8:1]/8,,2,,16,,7,8,,2,1,,37,,8,,
8-4[8:1]/1,,7,,38,,2,1,,1,2,,38,,,,
2-5[8:1]/6,,5,,26,,7,8,,8,7,,16,,5,,
34,,,56,,,1h[8:3]/8b,,,,,,6-3[8:1],,,,
2b/6,,,,17,,1-5[8:1]/7,,,,16,,8,,,,
37,,6,5,6,,37,,3,4,3,,2b,1b,2b,1bq7[4:2]*>6[4:2],
{1},
{16}
8>3[8:1]/7,,,,6,,5<8[8:1],,,4,5,,3,,2h[4:1],,
,,1,,38,,4,7,,6,4,,35,,2>6[4:1]/6,,
,,,,8,,8-4[8:1],,,,8/3-1[8:1],,,,3/6h[4:1],,
,,,,25,,3,4,,4,3,,2,,1,,
7<4[8:1]/8,,,,8>3[8:1],,,,4<7[8:1],,,,43,,3h[4:1],,
,,,,3-8[8:1]/8-4[8:1],,,,,,,,,,15,,2h[8:1]/6,,7,,38,,,,5/1h[8:1],,4,,38,,1b/6b,,
,,27,,27,,,,1,5,3,7,2,6,4,8,
1b<6[8:1]/2,,,,3,,4>1[8:1],,,5,4,,6,,7h[4:1],,
,,8,,16,,5,2,,3,5,,46,,7<3[4:1]/3,,
,,,,1,,1-5[8:1],,,,1/6-8[8:1],,,,6/3h[4:1],,
,,,,47,,6,5,,5,6,,7,,8,,
2-5[8:1]/1,,,,1-6[8:1],,,,5-2[8:1],,,,56,,6h[4:1],,
,,,,6-1[8:1]/1-5[8:1],,,,,,,,,,48,,7h[8:1]/3,,2,,61,,,,4/8h[8:1],,5,,26,,3b/7b,,
,,18,,36,,,,4,8,2,6,3,7,1,5,
2b-6[8:1],,,,2/8,,8b-4[8:1],,,,8/6,,6b<3[16:5],,,,
,,5,,6,6,,4,4,,7,3,5,4,6,2,
7b-3[8:1],,,,7/1,,1b-5[8:1],,,,1/3,,3b>6[16:9]*pp7[16:9],,,,
,,,,,,,,,,,,6,5,6,,
6<1[8:1]/4,,,,46,,2>5[8:1],,,,26,,7,,8,,
7-4[8:1]/4,,,,27,,1,,2-5[8:1]/6,,7,,28,,,,
45,,3,,45,,6,,26,,1,,3/7-3[8:1],,,,
4h[8:3]/7b,,,,,,5,2,5,4,7,4,6,2,8,4,
8b,,,,,,6,5,6,5,6,,34,,6,,
78,,6,,45,,3,4,,4,2,,35,,2,,
12,,3,,45,,6,5,,5,7,,46,,7,,
8<5[8:1]/4,,,,38,,3<6[8:1],,,,37,,,,1,5,
2,6,3,7,4,8,2,6,1-5[8:1],,37,,1,,6,2,
8V64[4:1],,3,,2,,1V35[4:1],,,,6,,7,,8,,
8-4[8:1],,,,1-3[8:1]/8,,,,1-5[8:1]/5,,6,,17,,,,
5/6-1[8:1],,4,,36,,2,,3-8[8:1]/4,,5,,36,,7,6,
1b/5,,,2b/6,,,3b/7,,,,3,,45,,6,,
7-4[8:1]/8,,6,,78,,2,6,,4,8,,45,,3,,
2-5[8:1]/1,,3,,12,,7,3,,5,1,,45,,6,,
7>2[8:1]/2,,,,37,,3p6[8:1],,,,37,,,,8,4,
7,3,6,2,5,1,7,3,5,,6,,7,,8,,
37,,4,,25,,7-4[8:1],8,,8,7,,3,,1,,
26,,5,,74,,2-5[8:1],1,,1,2,,6,,8,,
15,,2,,37,,4,8,,2,6,,2,,3,,
4b/5b,,,3b/6b,,,2b<7[8:1]/7b,,,,4,,5,,6,,
2-4[8:1]/5,,7,,2-8[8:1]/6,,8,,2pp5[4:2]/7,,6,,27,,,,
5,,6,,7,,8,,12,,{24}8,7,6,5,4,3,2,1,8,{16}
7/3h[4:4],,,,,,,,,,,,,,,,
5b,,,2b/6b,,,1b/5b,,3,4,2,5,3,7,1,,
2>5[8:1]/5,,1,,26,,7,6,,2,1,,34,,8,,
7<4[8:1]/4,,8,,37,,2,3,,7,8,,36,,,,
4>1[8:1]/6,,5,,47,,6,8,,8,6,,27,,3,,
56,,,34,,,8h[8:3]/1b,,,,,,3-6[8:1],,,,
3/7b,,,,28,,8-4[8:1]/2,,,,38,,1,,,,
26,,3,4,3,,26,,6,5,6,,7b,8b,7b,8bp2[4:2]*<3[4:2],
{1},
{16}
1b-5[8:1]/5,,6,,7,,8b-4[8:1],,4,,3,,
2b,,5,4,5,4,5b-1[8:1],,1,,2,,3b,,45,,36,,2bV41[1:3]/7bV58[1:3],,,,
,,,,,,,,,,,,,,,,
,,,,,,,,,,,,,,,,
,,,,,,,,,,,,,,,,
,,,,,,,,E
&inote_7=(144)
{1},,{16},,,,
1h[8:3],,,,,,2p3[8:3],,,,,,,,8,,
5h[8:3],,,,,,8q2[8:3],,,,,,,,5,,
7h[8:8],,,,,,5h[8:5],,,,,,,,,,
,,2,3,5,,6b/4b,,8,3,4,2,7,4,7,,
2-6[8:1]/7,,1,,62,,5,3,,1,8,,21,,4,,
4-2[8:1]/3,,3,,48,,6,1,,5,5,,23,,,,
3-7[8:1]/4,,3,,38,,7,4,,8,1,,76,,3,,
67,,,27,,,3h[8:3]/8b,,,,,,1-7[8:1],,,,
8b/1,,,,78,,3-5[8:1]/4,,,,37,,7,,,,
17,,3,3,5,,83,,4,7,8,,5b,6b,3b,5bq7[4:2]*>3[4:2],
{1},
{16}
4q1[8:1]/8,,,,5,,2<5[8:1],,,4,5,,4,,1h[4:1],,
,,4,,47,,5,5,,7,7,,17,,8>5[4:1]/1,,
,,,,3,,2-5[8:1],,,,2/6-4[8:1],,,,6/5h[4:1],,
,,,,57,,2,6,,5,5,,2,,7,,
7<3[8:1]/4,,,,1>7[8:1],,,,7<4[8:1],,,,75,,2h[4:1],,
,,,,7-2[8:1]/3-6[8:1],,,,,,,,,,63,,1h[8:1]/7,,2,,65,,,,5/7h[8:1],,8,,61,,7b/6b,,
,,21,,13,,,,3,8,2,5,3,5,4,7,
1b<2[8:1]/4,,,,2,,3>7[8:1],,,6,4,,6,,8h[4:1],,
,,6,,67,,7,8,,4,7,,18,,2<7[4:1]/4,,
,,,,2,,7-5[8:1],,,,7/4-1[8:1],,,,4/6h[4:1],,
,,,,45,,1,3,,7,5,,7,,1,,
2-4[8:1]/6,,,,5-1[8:1],,,,6-4[8:1],,,,67,,1h[4:1],,
,,,,6-4[8:1]/8-2[8:1],,,,,,,,,,41,,3h[8:1]/1,,6,,17,,,,7/2h[8:1],,1,,58,,1b/3b,,
,,24,,35,,,,5,4,3,5,5,5,8,1,
4b-2[8:1],,,,5/4,,1b-4[8:1],,,,1/6,,8b<3[16:5],,,,
,,8,,7,3,,8,1,,8,2,3,5,7,5,
8b-5[8:1],,,,3/8,,1b-4[8:1],,,,1/6,,5b>2[16:9]*pp1[16:9],,,,
,,,,,,,,,,,,4,8,8,,
5<8[8:1]/8,,,,56,,2>7[8:1],,,,82,,1,,2,,
3-7[8:1]/8,,,,31,,1,,2-4[8:1]/8,,2,,28,,,,
86,,4,,45,,3,,76,,5,,8/5-7[8:1],,,,
4h[8:3]/5b,,,,,,1,1,8,8,1,7,4,3,5,3,
8b,,,,,,1,7,5,1,2,,35,,2,,
14,,2,,82,,7,6,,5,7,,32,,4,,
65,,4,,63,,1,5,,2,7,,74,,5,,
7<3[8:1]/2,,,,74,,7<4[8:1],,,,47,,,,8,8,
7,5,7,1,8,2,6,1,7-5[8:1],,52,,1,,5,5,
8V64[4:1],,6,,1,,3V57[4:1],,,,6,,6,,5,,
7-2[8:1],,,,5-8[8:1]/7,,,,8-5[8:1]/5,,4,,28,,,,
3/6-2[8:1],,3,,16,,4,,1-3[8:1]/5,,7,,14,,4,8,
7b/2,,,6b/8,,,6b/8,,,,8,,62,,8,,
8-4[8:1]/5,,7,,38,,4,7,,2,8,,25,,5,,
2-5[8:1]/1,,8,,32,,6,1,,7,1,,86,,5,,
3>5[8:1]/7,,,,31,,7p5[8:1],,,,67,,,,1,3,
7,6,8,4,5,5,4,6,6,,3,,7,,5,,
28,,6,,21,,5-8[8:1],8,,7,1,,2,,4,,
67,,4,,38,,6-3[8:1],6,,3,2,,8,,6,,
24,,3,,17,,1,5,,5,1,,1,,2,,
8b/3b,,,5b/7b,,,3b<1[4:1]/2b,,,,4,,3,,6,,
7-3[8:1]/8,,2,,8-3[8:1]/7,,5,,7<3[4:2]/8,,2,,67,,,,
2,,6,,6<3[8:1],,7,,86,,{24}1,8,2,5,7,3,2,8,4,{16}
8/3h[4:4],,,,,,,,,,,,,,,,
2b,,,6b/2b,,,6b/7b,,1,1,2,1,2,7,7,,
2>7[8:1]/8,,7,,26,,5,6,,6,6,,23,,7,,
4<7[8:1]/8,,6,,64,,7,5,,5,8,,57,,,,
6-4[8:1]/2,,1,,36,,7,5,,8,4,,54,,1,,
36,,,67,,,2h[8:3]/8b,,,,,,5-2[8:1],,,,
8/5b,,,,53,,6-2[8:1]/4,,,,68,,4,,,,
63,,3,6,1,,24,,1,4,2,,6b,7b,4b,6bp5[4:2]*<3[4:2],
{1},
{16}
6b-1[8:1]/5,,7,,7,,5b-7[8:1],,6,,2,,
1b,,8,3,2,2,3b-1[8:1],,8,,6,,7b,,56,,53,,1bV38[1:3]/3bV52[1:3],,,,
,,,,,,,,,,,,,,,,
,,,,,,,,,,,,,,,,
,,,,,,,,,,,,,,,,
,,,,,,,,E
