&title=可爱补习法
&artist=泠鸢yousa
&first=0.075
&lv_4=11+
&des_4=凡絵
&inote_4=
(159){4},,,,6h[1:1],
D5,A4,D4,
3h[1:1],D5,A5,D6,
6h[1:1],D5,A4,D4,
3x,4x,{2}5xw1b[16:1],
2h[4:1]/7x<5[16:1],{8}3,3,{4}4,
{2}7h[4:1]/2>4[16:1],{4}6,5,
{2}6h[4:1]/3>1[16:1],{4}7,8,
{2}3h[4:1]/6<8[16:1],{8}2,2,{4}1,
{2}2h[4:1]/7x<5[16:1],{8}3,3,{4}4,
{2}7h[4:1]/2>4[16:1],{4}6,5,
{2}6h[4:1]/3x>1[16:1],{8}7,7,{4}8,
{8}1/2,1<6[8:1]/2>5b[8:1],{16},,,,,,,,,,,,,,D5,
D4,{8}D6,D3,D7,B3,B6,C,
{16},,D4,D5,{8}D3,D6,D2,B5,B2,C,
{16},,D6,D5,{8}D7,D4,D8,B4,B7,C,
{16},,D1,D8,{8}D2,D7,D3,B7,B2,C,
{16},,D7,E6,{8}D5,D4,E3,E2,E1,D8,
{16},,D3,E4,{8}D5,D6,E7,E8,E1,D2,
{16},,A6,A5,{8}A3,A4,B4,C,B8,A8,
{16},,A2,A1,{8}A7,A8,B8,C,B4,A4,
{2}3h[3:1]/5h[6:1],6h[3:1]/4h[6:1],
2h[3:1]/5h[6:1],{8}7h[4:1]/A4,{16}A3,D3,{4}A2,
{2}6h[3:1]/1h[6:1],3h[3:1]/8h[6:1],
5h[3:1]/1h[6:1],{8}4h[4:1]/A8,{16}A7,D7,{4}A6,
{6}5h[2:1],E4,A2,1h[2:1],E8,A6,
7h[2:1],E6,A4,3h[2:1],E2,A8,
{8}6h[2:1],A5,A4,A3,2h[2:1],A1,A8,A7,
{16}E4,E5,E3,E6,E2,E7,E1,E8,D2,D1,D3,D8,D4,D7,D5,D6,
{1}Cf,
{4}2>4[16:1],{8}8,8<6[16:1],,A5,{4}B5,
4>2[16:1],{8}6,6<8[16:1],,A1,{4}B1,
7<5[16:1],{8}1,1>3[16:1],,5,5,5<7[16:1],
,3,3,3>1[16:1],{4}A8,B8,
2-4[16:1],{8}8,8-6[16:1],,A5,{4}B5,
4-2[16:1],{8}6,6-8[16:1],,A1,{4}B1,
7-5[16:1],{8}1,1-3[16:1],,5,6,7,
{4}2,{8}3,4-1[16:1],{4}A8,B8,
1>4[16:1],{8}8,8<5[16:1],,E5,{4}C,
7<5[16:1],{8}1,1>4[16:1],,E5,{4}C,
2>4[16:1],{8}8,8<5[16:1],,4,,4>1[16:1],
,5,5,5<8[16:1],{4}E1,C,
1-4[16:1],{8}8,8-5[16:1],,E5,{4}C,
7-5[16:1],{8}1,1-4[16:1],,E5,{4}C,
2-4[16:1],{8}8,8-5[16:1],,4,3,2,
{4}7,{8}6,5-8[16:1],{4}D1,E1f,
{1}Ch[1:8],
,,,,,,,{4}6h[1:1],
2x,{16},,,,2x,3x,{8}4x,
{4}3h[1:1],7x<5[8:1],,7x,
6h[1:1],2x>4[8:1],{16},,,,2x,3x,{8}4x,
{4}3h[1:1],7x<5[8:1],,7x,
{16}6,4,{8}6h[8:1],{16},,3,5,{2}3h[4:1],
{16}7,6,{8}5h[8:7],{4}1x>3[8:1],,1x,
{16}2x,3x,{8}4h[8:1],{16},,7x,6x,{2}5h[4:1],
{8}A3,A5,A4,A6,,5h[4:1],4xw8b[8:1],4x,
,,,,,,{4}B6,
,,,D7,
,,,,,,D3,
D3,
Ch[1:4],,,B3,
,,,D3,
,,,,,,D7,
D7,
2,{8}8,1,,7,{4}E4/B4/B5/E6,
7,{8}1,8,,2,{4}E4/B4/B5/E6,
3,{8}5,4,,6,,3,
,7,1,8,{4}E4/B4/B5/E6,E4/B4/B5/E6,
2>4[8:1],{8}7,7,,2,{4}E4/B4/B5/E6,
7<5[8:1],{8}2,2,,7,{4}E4/B4/B5/E6,
2>4[8:1],{8}7,7<5[8:1],,2,2,Ch[8:3],
,,,,{4}2/7,3/6,
{1}5/4qq4[8:3]*pp4[8:3],
E
&lv_5=13+
&des_5=凡絵
&inote_5=
(159){4},,,,{1}E7h[1:3],
Ch[4:9],
E3h[2:3],
{4},,,{32}E3,Cf,{16}E7,,,{2}6xh[4:3]/4xh[4:1],
{8}A3,A2,{4}A1,
{16}8h[4:3]/7x>4[4:1],6x,{8}5x,,,,,,,{2}3h[4:3]/5h[4:1],
{8}A6,A7,{4}A8,
{16}3x/8x,2x/7x,{8}6x/1x>4[8:1],,1<6[8:1],,1,,,{2}6h[4:3]/4h[4:1],
{8}A3,A2,{4}A1,
{8}8>3[8:1],7<4[8:1],8,7-3-7[4:1],,A4,A5,A6,
{4}3h[16:3]/5h[16:3],6h[16:3]/2h[16:3],{8}A7,A1,{4}A8,
{8}7v4[0.5623##0.1887]/1v4[0.5623##0.1887],7h[4:1]/1h[4:1],,,,,,,A7/B7/E7/D7/A6/B6,
,,A1/D2/E2/B1/B2/A2,,,{4}B4/E5/A4/E4/D4/D5/A8h[1:1],
{8}A3/B3/E3/D3/A2/B2,,,A6/B6/B5/E6/A5/D6,,,{4}D8/E8/B8/E1/D1/A4h[1:1],
{16}A3/B3/E3/D3/A2/B2,,,A1/D1/A8/E1/B8/B1,,,{8}B7/A7/E7/D7/B6/A6,,,{4}A5h[1:1],
{8}A4/D4/A3/E4/B4/B3,,,A6/B6/E7/B7/A7/D7,{16},B8/B1/E1/A8/D1/A1,,,{4}A3/B3/B2/A2/D3/E3h[1:1],
{8}A8/D1/A1/E1/B1/B8,,,B5/B4/E5/A5/D5/A4,,,{4}B7/B6/A7/D7/A6/E7h[1:1],
{8}A5/D5/A4/B4/E5/B5,,,A3/B3/E3/D3/A2/B2,,,{4}E1h[1:1],
{16}A6/B6/B5/E6/D6/A5,,,A5/B5/B4/E5/D5/A4,,,{8}A4/B4/B3/A3/E4/D4,,,{4}E5h[1:1],
{8}A7/B7/D7/A6/B6/E7,,,A8/D1/A1/E1/B8/B1,{16},A1/D2/E2/B1/B2/A2,,,{8}A2/D3/A3/B3/B2/E3h[8:1],A7/B7/B6/A6/D7/E7h[16:0],
{16}4x/6xh[8:3],,,4,,,{8}4,{16}5/3h[8:3],,,5,,,{8}5,
{16}4/7h[8:3],,,4,,,{8}4,2h[4:1],{16}7x,6x,{4}5x,
{16}8/D3h[8:3],,,8,,,{8}8,{16}1/A6h[8:3],,,1,,,{8}1,
{16}7/D4h[8:3],,,7,,,{8}7,A5h[8:3],{16}2x<7[8:1],3x,{8}4x,2,
{16}6,,,5,,,{8}4,{16}3/A6h[8:3],,,2,,,{8}1,
{16}8/A3h[8:3],,,7,,,{8}6,{16}5/A8h[8:3],,,4,,,{8}3,
2-6[8:1],2,1-5[8:1],1,8-4[8:1],8,7-3[8:1],7,
{16}3,2,1,8,7,3,5,1,6,2,8,4,7,3,5,2,
{8}8w4b[1.1321##0.1887],5h[16:1]/3h[16:3],6h[16:3],2h[16:3],7h[16:3],1h[16:1],{4}8h,
E8h[8:5]/4-1b[1.1321##0.1887],{8}3,3,{32},,,,E7,E6,{16}E5,{4}4xh,
E2h[8:5]/5-8b[1.1321##0.1887],{8}6,6,{32},,,,E3,E4,{16}E5,{4}5xh,
E6h[8:5],{8}1,1,{16},,2,3,{8}4-8b[1.1321##0.1887],{16}6,5,
{8}4-2b[1.1321##0.1887],A7,C,A3,{4}4h,4h,
E4h[8:5]/8-5b[1.1321##0.1887],{8}7,7,{32},,,,E3,E2,{16}E1,{4}8xh,
E6h[8:5]/1-4b[1.1321##0.1887],{8}2,2,{32},,,,E7,E8,{16}E1,{4}1xh,
7h[4:1],{8}1,2h[4:1],,8,8-4b[1.1321##0.1887],8,
A3h[8:1]/8-6b[1.1321##0.1887],Ch[8:1],{4}A7h[8:1],8h,8h,
E8h[8:5]/4>1b[1.1321##0.1887],{8}5,5,{24},,,7x,6,5,{4}4h,
E2h[8:5]/5<8b[1.1321##0.1887],{8}4,4,{24},,,2x,3,4,{4}5h,
E6h[8:5],{8}1,1,{16},,2,3,{8}4q8b[1.1321##0.1887],{16}6,5,
{8}4>2b[1.1321##0.1887],E7,B5,E4,{4}4xh,4xh,
E4h[8:5]/8<5b[1.1321##0.1887],{8}1,1,{24},,,3x,2,1,{4}8h,
E6h[8:5]/1>4b[1.1321##0.1887],{8}8,8,{24},,,6x,7,8,{4}1h,
7h[4:1],{8}1,2h[4:1],,8,8q4b[1.1321##0.1887],8,
E3h[8:1]/8<6b[1.1321##0.1887],B1h[8:1],{4}E8h[8:1],8xh,8xh,
{1}A3h[1:8],
,A4h[1:6],
,A5h[1:4],
,A6h[1:2],
,{24},2,
1,8<6<7<5<6>4<5>3<4>2>3>1>2<8>1<7>8<6[8:15],,,{4}Ch[8:0],,A5/B5,
,A4/B4,,A1/B1,
6-4-7-3-8-2-4-1-5-8-6-3-7-2[1:2],A6/E6,,E3/B2,
,E2/A1,,A6/E6,
{16}2qq4qq6qq8qq2[1:2],2h[16:1],,,{8}A2/B2,{16}7,7h[16:1],,,,,{4}A4/B4,
{16}5,5h[16:1],,,{4}A6/B6,,A8/B8,
{16}3,4,5,6,{8}7x-1>1>3-5<5b[1.1321##1.5057],{16}6,5,4,3,{8}2x,,,,,{4}Ch[16:0],
{8},A5,A8,D3f,
{1},,,,4b-1b[1.1321##0.1887],
5b-8b[1.1321##0.1887],
{4}D7,{8}E7h[8:3],D3,,E3h[8:0],4b-1b[1.1321##0.1887],D5,
E4h[8:1]/5b-8b[1.1321##0.1887],E5h[8:1],{4}E6h[8:1],,,1xp5b[1.1321##0.1887]/6x<8b[1.1321##0.1887],
{8}2/4,D3/E3/B3/E4/D4/A3h[4:1],,,,,{4}8xq4b[1.1321##0.1887]/3x>1b[1.1321##0.1887],
{8}7/5,D7/E7/B6/E6/D6/A6h[4:1],,,,,{4}1/5,
{8}3/7,6h[4:1]/2h[4:1],,,{4}5-1b[1.1321##0.1887]/1-5b[1.1321##0.1887],
{8}3-7b[1.1321##0.1887]/7-3b[1.1321##0.1887],8,4,2/6,,,,,{4}D4/A3/D3/E3/B3/E4/6<3b[1.1321##0.2755],
{8}A5/D6/A6/B6/B5/E6,A4/D4/A3/B3/B4/E4,,A6/D6/E6/B6/E7/D7,,,{4}E2h[8:5]/7<2b[1.1321##0.2755],
{8}E1h[8:3],E8h[4:1],,,,,{4}1/5,
{8}3/7,6h[4:1]/2h[4:1],,,5-1b[1.1321##0.1887]/1-5b[1.1321##0.1887],5x/1x,
{1}5>1b[1.1321##0.1887]/1<5b[1.1321##0.1887],
{32}E1/B1/E2,E8/E3,B7/B3,E7/E4,E6/B5/E5,5xpp5[32:11]*qq5[32:11],
E
