&title=AI Nov
&artist=Feryquitous
&first=1.13
&des=Ring
&lv_5=14
&lv_6=14
&inote_5=(195)
{8}4h[8:7],,B8,,B6,B7,,5h[8:7],,E3,,E1,E2,,C,,
4x/5x,{16}1,8,1,,3,6,3,,{4}1-4[8:1]/8-5[8:1],1/8,,{8},1-5[8:1],8,1,,
3x/6x,{16}7,2,7,,8,1,8,,{4}4-1[8:1]/5-8[8:1],4/5,Ch[8:3],,,{8},
2x/7x,{16}1,8,1,7,1,6,1,5,{4}1-5[8:1],1,{8}8h[8:3],,,4,4,5,,
1x/8x,{16}4,8,4,7,4,6,4,5,{4}4w8[8:1],4,Ch[8:7],,,{8},
8b,7,6h[4:1],,B8,B4,B2,2/7,,1s5[8:1],8,7,,,{8}4x/5x,,
1,2,3h[4:1],,B6,B4,B1,3/6,,5V38[8:1],4,3,,,{16}1,8,1,8,
{8}1b,7,1h[4:1]/6h[4:1],,E2/E6,E3/E7,B4/B5,1/8,,4-8[8:4],5,6,,,,,
4,3,2h[4:1]/4h[4:1],,B2/B3,B7/B6,E8/E2,4/5,,1>1[8:5],8,7,Chf[4:2],,,,
{1},E8,
E3,E5,
{8}B1,B2,,B8,B3,,,,Ch[8:3],,B8,B7,B6,,,,
3h[4:1]/6,6,6h[4:1],4,4h[4:1],5,5x,,{16}5,4,6,3,7,2,8,1,7,2,{8}C,,,
2-5[8:1]/7b,1,2,7-4[8:1],8,7,1-6[8:1],7,1,8-3[8:1],2,8,2h[8:1],1h[8:1],8h[8:1],7h[8:1],
4-8[8:1],7,4,6-2[8:1],3,6,3-7[8:1],5,3,5-1[8:1],3,5,6h[8:1],5h[8:1],4h[8:1],3h[8:1],
2-6[8:1],6,2,5-1[8:1],1,5,4-8[8:1],8,4,7-3[8:1],3,7,1-5[8:1],8-4[8:1],1,8,
2-7[8:1],7,2,6-3[8:1],3,6,1,8,{16}2,7,3,6,4,5,3,6,2,7,{8}Chf[8:3],,,
1,5,2,6,3,7,4,8,5,1,4h[8:4],8h[8:3],,,,,
8,4,7,3,6,2,5,1,4v7[8:1],8v3[8:1],4,8,,,,,
2h[4:1],8,6h[4:1],1,3h[4:1],7,5h[4:1],1,3,4<7[4:1],8,7>2[4:1],,,,,
5h[8:1],1,2h[8:1],5,6h[8:1],2,3h[8:1],7,8hx[8:7]/B1,B2,B3,B4,B2,B3,B4,,
2x>4[8:1]/6x,,2/6<8[8:1],,2-6[8:1]/6,2,2/6<8[8:1],,6/2>4[8:1],,6<8[8:1]/2,,2<8[8:1]/6>4[8:1],2,2/6,,
4x<6[8:1]/8x,,4/8>2[8:1],,4-8[8:1]/8,4,4/8>2[8:1],,4<6[8:1]/8,,8>2[8:1]/4,,4-8[8:1]/8-4[8:1],4,8/4,,
1-4[8:1]*-6[8:1],,1-5[8:1],,1/7-3[8:1],7,7/2-6[8:1],,2/4-1[8:1]*-7[8:1],,4-8[8:1],,4/8w4[8:1],8,8,,
8-6[8:1],,3V51[4:1]/8,,7-3[8:1]/3,7,7-5[8:1],,7/3-1[8:1],,3/6V84[8:3],,1-3[8:1],1,1,,
{1}Cf,,
{8}E5,,E6,E4,,E7,,B1,,B4,B5,B6,,,,,
B2,,B1,B3,,B8,,E6,,E1,E2,E3,,,,,
5h[4:2],,,,{16}4x,3x,2x,1x,8x,7x,6x,5x,4,5,2,7,4,5,3,6,2,7,3,6,2,7,1,8,
1h[8:1],,{32}8b,7/2,6/3,5/4,{16},,2x/7x,,3v4[8:1],4,3,4,{4},{16}6,5,6,,3,4,3,,2,7,{24}1x,8x,1x,8x,1x,8x,{8},
{16}4,5,3,6,4h[8:1],,8,,2v1[8:1],4,2,4,{4},{8}2/7,2/7,1s5[8:3]/8,4/5,1/8,,,,
2b/7,7,{16}2,4,2,,8-4[8:1],4-8[8:1],8,4,{4}8,{8}8/7,7,1/2,2,1/7,{32}1x,2x,3x,4x,5x,6x,7x,8x,{8}1h[8:1],
{16}7,5,6,,2,4,3,,1-4[8:1],8,1-6[8:1],8,1,8,,,
1x,5x,1x,5x,1hx[8:1],,,,{32}8,7,6,5,4,3,2,1,{4}8-4[8:1],
{1}8w4[4:2],2b/7b,
{8}4x/6x,3/5,2/1,7/8,{16}1,8,1,,{8}2/7,,1/7,4/5,8/3,4/5,{16}2,7,2,,{8}3/6,,
{8}2,1,8/7,6/1,{16}2,5,2,5,2,,{8}3/4,{16}7,4,7,4,{8}7h[8:1],2,{16}1,8,1,8,{8}2x/7x,,
1/2,8,{16}3,7,3,,6,5,6,5,6,,{8}1/7,8,1-5[8:1]/7-4[8:1],,1x/7x,,{16}4,5,{8}3/6,,
{16}1,8,1,8,1,8,1,8,{8}2h[4:1]/7h[4:1],,,,
{8}1-6[8:1],,1,8-3[8:1],,8,,{8}Chf[8:14],,,E1,,,E2,,,E8,,,E3,,E7,,,
8/7,8/2,{16}3,6,3,,7,4,6,5,7h[8:1],,2,,2,1,3,8,2,,{8}2/7,{16}4,5,4,,{8}3x/6x,4/5,
7,6,4/5,2/7,{16}2,1,2,1,2,,{8}7/3,{16}6,3,5,4,6,,{8}4/5,{16}3,2,1,,{8}8x/7hx[4:1],,
{32}2b,3,4,5,6,7,8,1,2,3,4,5,6,7,8,1,5b,4,3,2,1,8,7,6,5,4,3,2,1,8,7,6,{1}5hx[4:3]/1hx[4:3],
{8}1b/8b,2/7,{16}6,5,6,,3,4,3,4,{8}3,2/7,{16}2,3,2
,4,2,5,2,6,2,7,2,8,{8}2h[8:1],1,
{16}6,1,6,1,7,8,7,8,7,6,5,4,3,2,1,8,3/7,4,5,6,7,8,1,2,3/8,1,8,1,{8}2h[8:1]/7h[8:1],,
{16}4,5,4,5,3,6,3,6,{8}3h[8:1],,3/6,2/7,{16}1,8,2,8,1,8,3,8,1-5[8:1],8,4,8,{4}1,
{8}3h[8:1],8h[8:1],1h[8:1],5h[8:1],4h[8:1],7h[8:1],2h[8:1],6h[8:1],
4,,8,7-4[8:1]/3-8[8:1],,7/3,,{8}Chf[8:14],,,E5,,,E6,,,E4,,,8-4[16:1],,,,,
3/8,4/7,{16}6,5,6,,3,4,3,4,3h[8:1],,,,8,1,7,2,8,1,7,2,{8}8h[8:1],,7h[8:1]/2h[8:1],,
5/4,3,{16}2,1,2,,7-4[8:1],8,7,8h[16:3],7,,,,1,2,3,4/5,6,7,8,,{32}4,3,2,1,8,7,6,5,4,3,2,1,8,7,6,5,
{2}4x-1[8:1]/8x-5[8:1],1xs5[8:1]/7xq3[8:1],{4}2x<7[4:1]/5x-2[4:1],,,Cf,
{16}3/6,,4,5,4,,{4}2/7-3[8:1],7/2-6[8:1],2b,,,,,E
&inote_6=(195)
{1},{16},,3,6,2,7,1-5[8:1],8,1,8,1,,,,,,
{4}3x/7x,{8}6,6,{16}3,4,{8}2-6[8:1],,2x/8xh[8:5],,,,,1x,1x,7,7,
2x/6x,,3,3,{16}6,5,{8}7-3[8:1],,7x/1xs5[8:3],{1},
{4}1x/8x,{16}2,4,3,,7,5,{8}6-1[8:1],,6x/4x,,3h[8:5],,,8,8,7-4[8:1],7,
1x/7x,,2,2,{16}6,5,7,,1,8,{8}2xh[8:9]/7xh[8:9],{1},
{8},,1>4[8:3],,7,7,6,6<1[8:3],,2,2,,{24}E4,B4,B5,E6,,,{8}7,7,
4h[4:1]/6,,5<8[8:3],,3,3,2,2h[4:3],,7,7,,{24}E8,B8,B1,E2,,,{16}1x,8x,1x,8x,
{8}1xh[8:1],,8<5[8:3],,2,2,3qq8[4:2],3,,7,7,6,6,,E1/B1/B8,,
6h[4:1]/2,,4>1[8:3],,6,6,7V51[8:3],7,,1>8[8:5],2,3,4h[4:1],,{4},
4b,{8},1,8,2,7h[4:1],,,,3,4,2h[4:2],5,5,5,
5x,,,8,1,7,2h[4:1],,,,6,5,7h[4:2],4,4,4,
4x,4/6,,5,3/5,,E3,E7,{4}Ch[4:2],8z4[4:1],8,,
{8}1,2,3/4,8,7,6/5,4h[4:1],,{16}6h[8:1],,,4,5,3,6,2,7,1h[16:7],8h[16:6],,{4},
{8},2-6[8:1],3,,8-4[8:1],7,,1-5[8:1],2,,7<4[8:1],6,7/1,2,3,4,
{8}5/6,4-8[8:1]/7,3,,6-1[8:1],7,,3-7[8:1],2,,5-1[8:1],6,5/4,{16}3,7,3,7,{8}2,
1/5,1-4[8:1]/5,3,,8-5[8:1],6,,1>4[8:1],3,,8<5[8:1],6,1/8,2,4/7,2/5,
3/6,1-5[8:1]/8,7,,8-4[8:1],2,,3,7h[8:1],{16},4,8,3,7,2,6,1h[16:3],5h[16:4],,{4},
{8}2b/4,,5/6,,3,3h[4:2],,4,,7,5,6,1,,2q8[8:3]/7,,
{4}6h[4:1],,{8}7,7,7p1[8:3],,{4}3h[4:1],,{8}8,8,1/8,,
7/5,,3/4,,6,6h[4:2],,2,,4,5,3,{4}2/6,1/7V15[8:3],
3h[4:1],,{8}2,2,2V84[8:3],,5,5,6,6,7,7,8-4[8:1],,
{32}8x/2x,Cf,,,,,,,{4}3hx[4:1],{8}5x,6x,3,4x,6/5,{16}7x,5,6,,2x,4,3x,,{8}8,1x/8hx[4:1],,
{16}1x,2,3,4,6,7,8,1,{8}3,3,5,5,{16}4x,3,2,1,7,6,5,4,{8}1,1,{4}2-5[8:1]/5-1[8:1],
2x/5x,3x/7x,{8}2hx[4:1],6x,7h[4:1],3x,4,{16}7x,8,6,,2x,1,3x,,{8}8/4,8hx[4:1]/4x,,
{16}2x,3,4,5,{8}7,7,{16}5x,4,3,2,{8}1/8,7,2>4[8:1],4<6[8:1],6<8[8:1],8>4[4:1],4x,5x,6x,,
{1}8b/Cf,{4},,,{24}4,5,4,{8},
3/6h[8:7],,,,,,,2h[8:7],,,,,,,{24}E7,E6,E5,,,,
{8}1h[8:7],,,,,,,3h[8:7],,,,,,,{24}E1,E8,E7,,,,
{4}1x-5[8:17]/8x,,{16}1,2,3,4,5,6,7,8,1,2,3,4,5,6,7,8,1,2,3,4,5,6,7,8,
{4}1s5[8:1],1b,{16}3,7,3,7,{8}4h[8:1]/6h[8:1],,5-1[8:1],{16}4,4,{8}5,2>2[4:1],7/8,{32}E3,E4,E5,E6,E7,E8,E1,E2,{8},
{16}7,8,6,,{8}1/5,2/6,{16}3-8[8:1],4,6-1[8:1],5,{4},4w8[8:1],4<3[8:3]*>5[8:3],4,,
{8}1x/7x,1/7,{16}2,4,3,,7,4,6,5,{8}7h[8:1]/4h[8:1],,3-8[8:1],{16}2,4,{8}3/5,6V82[8:1],2V48[8:1],{32}E7,E8,E1,E2,E3,E4,C,B8,{8},
{16}2,6,3,5,{8}4,4,{16}7-3[8:1],6,3-7[8:1],4,{8},,4,4,4/6,3/5,2/4,{16}1,8,2,7,3,6,
{1}4h[1:1]/5h[1:1],,
{8}2b/5b,3,4/6,{16}7,8,7,8,6,,2-5[8:1],1,2,,{8}2/8-4[8:1],7,8/3-6[8:1],2,3/7-4[8:1],8,7/1,2,
5x/3x,6,{16}7,5,7,5,7h[8:1],,3,4,2,,1/5,,8,1,7,2,3/6,,4/5,,3v1[8:1],7,2,5,{4}3x,
{16}7,8,7,8,{48}7,E7,B6,B5,E5,,{16}2,1,2,1,{48}2,E3,B3,B4,E5,,{4}8h[4:1],{24}5x,6,7,8x-4[8:1],1-5[8:1],2,{8}3/6,1x/8x,,{16}7,8,1/6,,2,1,
{16}3/8,4,5,6,7,8,1,2,3/7,6,5,4,3,2,1,8,{8}7-3[8:1]/3,,7,1>4[8:1]*<6[8:1],,1b,,
2h[4:1]/8h[4:1],,,3h[4:1]/7h[4:1],,,4h[4:1]/6h[4:1],,,5h[8:5],,,4,,3,,2b/6,3/7,
{16}2,1,2,1,{8}2,3/4,5/6,7/8,1/2,2-6[8:1],{16}7,7,{8}2,8<5[8:1],7,8/1>4[8:1],2,1/8,
7,{16}7,5,6,,2,1,4-8[8:1],,6,2,4,,1,,{16}2,6,2,6,3,7,3,7,2,8,3/7,4/6,{8}5h[4:1],,
3,2/4,6,7/5,{16}4,8,3,7,2,6,1,5,{4}8xh[4:3]/4x>4[8:3],,,{32}5,6,7,8,1,2,3,4,
{8}5b/1b,2,{16}3,5,3,5,4,6,4,6,3,7,3,7,2,3,4,5,1,8,7,6,4,3,2,1,8h[8:1],,,,
2,5,3,4,2,5,3,,7,4,6,5,7,4,6,,1,2,3,4,5,1,5,1,4,8,4,8,7h[8:1]/3h[8:1],,,,
{8}6,6,{16}2,4,3,5,4,5,3,6,2,7,1,8,1x,2,3,4,8x,1,2,3,7x,8,1,2,{8}3/7,4/6,
5-1[8:1],2-5[8:1],5,2-6[8:1],8-4[8:1],2,8,1,2/6,{16}3,4,3,4,{4}3b-7[8:1],5<4[4:7],
{8}Cf,,,3h[4:1],,,4h[4:1],,,5h[4:1],,,6,,7,,8b,
{16}1,8,1,8,1,2,3,4,1,5,1,5,1,8,7,6,2,4,2,4,3,5,3,5,2,6,1,7,8h[8:1],,,,
{8}5/6,5/6,4/7,4/7,4/6,3/5,2/4,1/3,{16}3,4,5,6,8,1,2,3,7,3,7,3,2x/6x,,,,
{16}2,1,2,1,3h[4:1],,,,7,8,7,8,6h[4:1],,,,3,4,2,5,1,6,8,7,{32}1,2,3,4,5,6,7,8,1,2,3,4,5,6,7,8,
{16}1-5[8:1],,2,8,{8}1,7-3[8:1],,4w8[8:1],,4b,
