&title=青花瓷
&artist=周杰伦
&first=0
&lv_5=12+
&des_5=毛
&inote_5=
(108){4},{1},{4},,{16},,,8v7<2v1[4:15],
{1},,,,{16},,,1v2>7v8[2:5],
{1},,{4},,,{16},,,Cf,
,,,,,,,,,8qq5[4:3],,8,
,3,,3,,,,3-8[8:1],,4,,3,,,,3/5,
,4,,5-1[8:1]/3v1b[8:1],,2,,3/5,,,,,,7q4q2[4:3],,7,
,B4,,C,,,,5-3[8:1],,4,,5,,,,8/7,
,6,,7-3[8:1]/8s4[8:1],,1,,8/7,,,,,,8-6[8:1],,1-5[8:1],
,8,,1,,,,8V64[8:1]*V24[8:1],,8,,8,,,,6pp5[4:1],
,4qq5[4:1],,6,,4,,,,B6/E6/B5,,,,6-3[8:1],,7-2[8:1],
,6,,7,,5pp7[8:1],,4qq2[8:7],,5,,4,,,,,,,,,,,,,,,,,,3V15[4:3],
,3,
,B5,,C,,,,7-3b[8:1],,8,,7,,,,7-3b[8:1],
,1-5b[8:1],,7,,1,,C,,,,,,4<4[8:5],,2,
,8,,1,,,,B8,,C,,B4,,,,7,
,3,,5pp7[8:1]*qq3[8:1],,4/6,,5,,,,,,8-6[8:1],,1-3[8:1],
,8-4[8:1],,1-5[8:1],,8,,1w5[8:1],,,,1,,,,5-7[8:1],
,4-2[8:1],,5-1[8:1],,4-8[8:1],,5V73[4:5],,4,,5,,,,2V84[4:3],
,2,,,,,,,,,,,,,,,,,,1b,
,,,2b,,,,3b,,6v5[4:1],,6,
,5-8[4:1],,5,,4,,3,,,,1V38[4:1],,3,,8v5[8:3],
,4,,7,,,,,,,,,,6-8[8:1],,5-3[8:1],
,6,,5w1[8:1],,5,,5,,,,7>2[8:1],,2-6[8:1],,6>3[8:1],
,3-8[4:1],,,,,,,,,,,,6/5,,5/4,
,4/3-8[8:1],,2,,3/4-7[8:1],,5,,4/3-8[8:1],,2,,3/4-7[8:1],,5,
,4/3qq5[4:1],,3,,,,,,,,,,1,,2/8,
,7/3,,4h[4:1],,,,5,,5-1[8:1]*-7[8:1],,,,5p4[4:1],,,,4>5[4:1],
,,,Cf,,,,,,,,3v4[4:1],,3,
,4-1[4:1],,4,,5,,6,,,,8V61[4:1],,6,,1v4[8:3],
,5,,2,,,,,,,,,,3-1[8:1],,4-6[8:1],
,3,,4w8[8:1],,4,,4,,,,2<7[8:1],,7-3[8:1],,3<6[8:1],
,6-1[4:1],,,,,,,,,,,,3/4,,4/5,
,5/6-1[8:1],,7,,6/5-2[8:1],,4,,5/6-1[8:1],,7,,6/5-2[8:1],,4,
,5/6pp4[8:1],,6,,,,,,3,,3qq7[8:3],,,,4,
,4q5[4:5]*>5[4:5],,,,4,{1},{4},{16},1b/8b,
,,,8-6[8:1]*-2[8:1],
,2v4[8:1]/6v4[8:1],,,,,,,,,,C,,,,1-7[8:1]*-3[8:1],
,3v5[8:1]/7v5[8:1],,,,,,,,,,C,,,,5v4[8:1]*v6[8:1],
,4>1[8:1]/6<1[8:1],,,,,,,,,,C,,,,4v3[8:1]*v5[8:1],
,3>8[8:1]/5<8[8:1],,,,,,,,,,C,,,,7/2,
,3/6,,4/5-1[8:1],,,,5/6-2[8:1],,,,6/7-3[8:1],,,,7/8-4[8:1],
,,,8/1-5[8:1],,,,1/2-6[8:1],,,,2/3-7[8:1],,,,3/4,
,,,{32}1x,8x,1x,8x,1x,8x,1x,8x,1x,8x,1x,8x,1x,8x,1x,8x,1x,8x,1x,8x,1x,8x,1x,8x,1xw5[8:1],8x,
1x,8x,{8},{32}1bx,B1,Cf,B5/E6/E5,{2},{16}1V37<3[4:3],,1,
,E7,,E6,,,,8>2b[8:1],,1,,8,,,,3<6[8:1],
,6v3[8:1],,E4,,E5,,E6,,,,,,8pp3b[4:3],,8,
,7,,6,,,,5v8[8:1],,6,,5,,,,3>8b[8:1],
,7<4[8:1],,3-7[8:1]*-7[8:1],,7,,3,,,,,,7v4b[8:1]/1v4[8:1],,2/6,
,1/7,,C,,,,6>2[8:1],,2<6[8:1],,6,,,,4pp5b[8:1],
,3/5,,4/8,,8w4b[8:1],,,,8,,,,2-4[8:1],,8-6[8:1],
,2-5[8:1],,8-5[8:1],,2,,8,,1,,1w5[8:1],,,,1,
,Cf/B8/B1/B7/B6/B5/B4/B3/B2,,,,,,,,,,,,8q5[8:1]*>5[8:1],,7/1,
,8,,C,,,,8<6[8:1]/1p5[8:1],,2/3,,1/8,,,,6-8>1-3<6[4:1],
,6,,E5,,C,,E1,,,,,,6q3[4:3],,6,
,7,,8,,,,6>3b[8:1],,8,,6,,,,8v6b[8:1],
,2v4b[8:1],,8,,2,,C,,,,,,5q1[8:1],,3p7[8:1],
,5,,3,,8,,8w4[8:1],,,,8,,,,7v4[8:1],
,2v5[8:1],,7V15[2:3],,2V84[8:11],,7,,2,{1},{4},,{16},8b,
,,,7b,,,,6b,,7v8[4:1],,7,
,8-5[4:1],,8,,1,,2,,,,4V25[4:1],,2,,5v8[4:1],
,1,,6,,,,,,,,,,7-5[8:1],,8-2[8:1],
,7,,8w4[8:1],,8,,8,,,,6>3[8:1],,3-7[8:1],,7>2[8:1],
,2-5[4:1],,,,,,,,,,,,7/8,,8/1,
,1/2-5[8:1],,3,,2/1-6[8:1],,8,,1/2-5[8:1],,3,,2/1-6[8:1],,8,
,1/2pp8[4:1],,2,,,,,,,,,,4,,3/5,
,2/6,,1h[4:1],,,,8,,8-6[8:1]*-4[8:1],,,,8q1[4:1],,,,1>8[4:1],
,,,Cf,,,,,,,,2v1[4:1],,2,
,1-4[4:1],,1,,8,,7,,,,5V74[4:1],,7,,4v1[4:1],
,8,,3,,,,,,,,,,2-4[8:1],,1-7[8:1],
,2,,1w5[8:1],,1,,1,,,,3<6[8:1],,6-2[8:1],,2<7[8:1],
,7-4[4:1],,,,,,,,,,,,1/2,,8/1,
,8/7-4[8:1],,6,,7/8-3[8:1],,1,,8/7-4[8:1],,6,,7/8-3[8:1],,1,
,8/7qq1[8:1],,7,,,,,,2,,2pp6[8:3],,,,1,
,1p8[8:5]*>8[8:5],,,,1,,,,,,,,,,,,,,{32}E1,
E2,E3,E4,E5,E6,E7,E8,D1,D2,D3,D4,D5,D6,D7,D8,{16}D1f/E1/B8/B1/A8/A1,,4,,3/5,
,2/6,,7q4b[8:1]/1p4b[8:1],,B2/B6,,1/7,,,,7-3b[8:1],,8-4b[8:1],,7,
,8,,C,,,,,,,,,,1V35b[8:1],,1,
,8V64b[8:1],,8,,B2/B3,,B8/B1,,,,2-6b[8:1],,1-5b[8:1],,2,
,1,,C,,,,,,,,,,8-2b[8:1],,7-3b[8:1],
,8-4b[8:1],,7-5b[8:1],,8>3b[8:1],,7<4b[8:1],,8,,7,,B5/B4,,B7/B6,
,7s3b[8:1]/6z2b[8:1],,2z6b[8:1]/3s7b[8:1],,,,,,,,,,3-7b[8:1],,4-8b[8:1],
,3,,4,,,,4,,4qq2b[8:1]*pp6b[8:1],,,,4q5b[4:1],,,,5<4b[4:1],
,,,Cf,,,,,,,,7/4,,6/3,
,2/5,,4pp8b[8:1]/3qq8b[8:1],,2,,3/4,,,,8/7-3b[8:1],,1/2v4b[8:1],,7,
,2,,,,C,,,,,,,,6-2b[8:1],,5-1b[8:1],
,6<1b[8:1],,5>2b[8:1],,6,,5,,,,7/2,,8-6b[8:1]/1<6b[8:1],,8/1,
,1-3b[8:1]/8>3b[8:1],,,,8/1,,,,,,,,1-7b[8:1],,2-6b[8:1],
,1-5b[8:1],,2-4b[8:1],,1<6b[8:1],,2>5b[8:1],,1,,2,,2,,2z6b[8:1]/3s7b[8:1],
,7s3b[8:1]/6z2b[8:1],,,,,,,,Ch[2:1],,3,,,,1,
,1w5b[8:1],,,,{32}1pp6b[8:27],B1,Cf,B6/B5/B4/E6/E5,{4},,,,,,,,,,,,,,,{16}8qq3b[2:3],
{1},{4},,,{16},,,5pp2b[4:9]/4qq7b[4:9],
E
