&title=PaIII.REVOLUTION
&artist=雄之助
&first=0
&des=MYOU
&lv_5=13+
&inote_5=(170){4},,,,{1}4b-2<1-5<6-8b[2:3],
,8b-6>5-1b[2:1]/2b-4<5-1b[2:1],
{3}8xh[6:1]/2xh[6:1],{12}E4,E5,{6}E6,{12}8x,7bx/1bx,{6},{4}6/5-2[8:1],
5/8,3/4-7[8:1],{12}4/1,,3,
{6},{12}7,8,,7,{4}8-4[8:1],8/1,
3/5-8[8:1],5/1,6/4-1[8:1],{12}8/4,,6,
{6},{12}2,1,,2,{4}1-5[8:1],8/1,
{12}4bxh[4:1]/6bxh[4:1],{3},{12}2,{4}1<6[8:1],2/1,
{12}5bxh[4:1]/3bxh[4:1],{3},{12}7,{4}8>3[8:1],7/8,
6bx-4[8:1]/4bx,6xb/2xb-6[8:1],2xb/8xb-4b[8:1],{12}8xb/4xb,,2bxh[4:1],
{6},{12}4,2,,2,{6}7,{12}7,5-3[8:1],{6},{12}6h[4:1],
{3},{12}6h[3:1]/4h[3:1],{2},{4}6/4,
{12}7/3,,3,{6}4,{12}4,5-3[8:1],,5,
6h[4:1],{3},{12}6h[3:1]/4h[3:1],{2},{4}6/4,
8-4[8:1]/2-6[8:1],,5-3[8:1],
{12}6h[4:1],{3},{12}6h[3:1]/4h[3:1],{2},{12}4/6-4[8:1],
{3},{12}3,{6}4,{12}4,5,,5,
{4}6x-8[8:1],6x/2x-4[8:1],2x/6x-8[8:1],6x/2x,
{12}2bxh[12:1],4bxh[12:1],3bxh[12:1],7bxh[12:1],5bxh[12:1],6bxh[12:1],1bxh[12:1],8bxh[12:1],2bxh[12:1],4bx-7[8:1],{6},{4}4/3,
3-5[8:1],3/5-2[8:1],8,
6/4,{12}7/3,,6,{6}5,{12}5,4-7[8:1],,4,
{4}3,3-5[8:1],3/5-2[8:1],8,
6/4,3/7-3[8:1],1-5[8:1],4-7[8:1],
3/4,3-5[8:1],3/5-1[8:1],8,
6/4,{12}8/2,,7,{6}5,{12}5,4,,4,
{4}2<7[4:1],7<4[4:1],4>8[4:1],8<4[4:1],
{4}4>8[4:1],8,4v1[8:1]*v7[8:1],,
{2}8x<5pp4[3:2],B2/B3,
3>8p7[3:2],E6,
4<7qq8[3:2],B2/B3,
{1}1>5qq3[2:1]*<5pp7[2:1],
{2}6h[4:1]/4h[4:1],1h[4:1]/B6/B7,
4h[4:1]/2h[4:1],7h[4:1]/E4,
{4}8bz4[4:1]/1bs5[4:1],{2},{12}3x,4x,3x,
A6,A7,A8,A2,A3,A4,{48}5xh[4:1]/6x-2[8:1],{4},{48}Cf,{24},,,,,{4}5x-2[8:1]/1x-6[8:1],
5/1-5[8:1],7/1v8-6[4:1],{12}3,,3h[4:1],
{6},{12}B5,A7/B7/E7,,B4,{6}A2/B2/E3,{12}B5,A7/B7/E7,{6},{4}8-5[8:1]/4-1[8:1],
4/8-4[8:1],6/8v7-5[4:1],{12}3,,3h[4:1],
{6},{12}E6,E8/A8/B8,,E4,{6}B1/A1/E2,{12}E6,E8/A8/B8,{6},{12}5x/6xh[12:5],
{3},{36}7bx,8x,1x,{2}2x-4[8:1]*v5[8:1],
{12}4x/3xh[12:5],{3},{36}2bx,1x,8x,{2}7xv5[8:1]*-4[8:1],
{4}6h[6:1]/3h[6:1],4h[6:1]/1h[6:1],6h[6:1]/3h[6:1],8h[6:1]/5h[6:1],
6/4w8[8:1],4,{12}2,4,3,7,5,6,
{4}1x>4[8:1]/5x<8[8:1],5/1-5[8:1],3/1-4-8[4:1],{12}6,,6h[4:1],
{6},{12}B1,A3/B3/E3,,B8,{6}A6/B6/E7,{12}B1,A3/B3/E3,{6},{4}8<5[8:1]/4>1[8:1],
4/8-4[8:1],6/8-5-1[4:1],{12}3,,3h[4:1],
{6},{12}E8,A5/B5/E6,,E2,{6}A4/E4/B4,{12}E8,A5/B5/E6,{6},{12}4x/2xh[12:5],
{3},{36}1bx,8x,7x,{2}6xv8[8:1]*-4[8:1],
{12}5x/7xh[12:5],{3},{36}8bx,1x,2x,{2}3xv8[8:1]*-6[8:1],
{4}1h[6:1]/5h[6:1],2h[6:1]/3h[6:1],4h[6:1]/8h[6:1],7h[6:1]/6h[6:1],
5/1>2-4[8:1]*v6[8:1],1,{12}7,5,6,2,4,3,
{4}5h[4:1],A8/E8/B8/E1,6/5h[4:1],A1/B1/E2/E1,
3/5h[4:1],A8/E8/B8/E1,6/5h[4:1],A1/B1/E2/E1,
{6}4/5,{12}3,4,,5,{4}4h[4:1],6-8[8:1],
4x-6[8:1],2x-4[8:1],8x-2[8:1]*-6[8:1],8x,
5x/4xh[4:1],A1/E1/B1/E2,3/4h[4:1],A8/E8/B8/E1,
6/4h[4:1],A1/E1/B1/E2,3/4h[4:1],A8/E8/B8/E1,
5/6h[4:1],8h[4:1],1h[4:1],2>6[4:1],
6p2[8:1],1,{12}8,1,7,2,1,3,
{4}8h[4:1],B5/E6/A5/E5,7/8h[4:1],B4/E5/A4/E4,
2/8h[4:1],E6/B5/A5/E5,7/8h[4:1],E4/B4/A4/E5,
{6}1/8,{12}3,1,,7,{4}1h[4:1],7<5[8:1],
1x<7[8:1],3x>1[8:1],5x>3[8:1]*<7[8:1],5x,
8x/2x,E5/B4/B3/E3,7/1,E7/B6/E5/B5,
8/2,E5/B4/B3/E3,1>2-4[8:1]/7<6-4[8:1],7/1,
5/3,A8/E1/B1/B2/E3/A3,6/4,A6/E7/B7/B8/E1/A1,
5bx/3bx-5[8:1],3bx/7bx-3[8:1],7bx/1bxs5b[8:1],1bx,
A6/E6/B5/B4/E4/A3/A4/D6/D4/D7/E7/B6/E5/B3/D3/E3/A5/D5f,{12}7x-3b[8:1]/8x-4b[8:1],7x/8x,7x/8x,{4}7bx/8bx,{12}1x-5b[8:1]/2x-6b[8:1],1x/2x,1x/2x,
{4}1bx/2bx,{12}7x<8b[3:1]/8x>7b[3:1],7x/8x,7x/8x,{2}A1f/A6,
{48}A1,D2,A2,D3,A3,D4,{8}A4,{48}A8,D8,A7,D7,A6,D6,{8}A5,{4}B7/B6/C/B2/B3/B5/B4,{12}1x-5b[8:1],1x,1x,
{4}1bx,{12}4x-8b[8:1],4x,4x,{4}4bxw8b[8:1],4bx,
A7/E8/B8/B1/E2/A2/A1/D8/D2/D7/E7/B7/E1/B2/D3/E3/A8/D1f,{12}5x-1b[8:1]/6x-1b[8:1],5x/6x,5x/6x,{4}5bx/6bx,{12}3x-8b[8:1]/4x-8b[8:1],3x/4x,3x/4x,
{4}3bx/4bx,{12}5x-3-1-7b[4:1]/6x-8-2-4b[4:1],5x/6x,5x/6x,{2}E7/E5f,
{4}A1/B1/E2/A2/B2/E3/E1/D1/D3/D2f,D6/A5/E6/B5/E5/B4/A4/E4/D4/D5f,A7/E8/A8/B8/B7/E7/D7/E1/D1/D8f,D2/E2/A2/B2/E3/B3/A3/D4/E4/D3f,
D6f/A6/A5/E6/E7/B6/B5/E5/D5/D7,{12}2bxh[12:1],4bxh[12:1],3bxh[12:1],8bxh[12:1],6bxh[12:1],7bxh[12:1],1bx>4b[8:1],{6},{2}8x<5pp4[3:2],
{8}2,,1,,
8x>3qq4[3:2],,,,6,,7,,
{4}8x<1[2:3],E2,E3,E4,
E5,E6,E7,E8,
1h[4:1],3h[4:1],5h[4:1],7,
8/1,2/3,5-1b[8:1]/4-8b[8:1],4x/5x,
{12}1bxh[12:1],5bxh[12:1],3bxh[12:1],8bxh[12:1],4bxh[12:1],6bxh[12:1],{4}E2/B1/E3/B3/B2/A2f,{12}6bxh[12:1],5bxh[12:1],8bxh[12:1],
3bxh[12:1],4bxh[12:1],1bxh[12:1],A6f/E7/B6/E6/B7/B5,{6},{12}1bx,1bx,1bx,8bx,8bx,8bx,
{4}2bxz6[24:7]/7bxs3[24:7],{2},{12}6x,5x,6x,
A3,A2,A1,A7,A6,A5,{48}4xh[4:1]/3x-7[8:1],{4},{48}Cf,{24},,,,,{4}8x-3[8:1]/4x-7[8:1],
8<5[8:1]/4>1[8:1],4/8v2-4[4:1],{12}6,,6h[4:1],
{6},{12}B4,A2/B2/E3/E2,,B5,{6}A7/B7/E7/E8,{12}B4,A2/B2/E3/E2,{6},{4}1-4[8:1]/5-8[8:1],
1<6[8:1]/5>2[8:1],5/1v3-5[4:1],{12}7,,7h[4:1],
{6},{12}E4,A2/B2/E2/D2/A1/B1,,E6,{6}B7/B8/E8/A7/D8/A8,{12}E4,A2/B2/E2/D2/A1/B1,{6},{9}6bxh[12:5]/2bxh[12:5],
{3},{36}7x/3x,8x/4x,{2}1x-5[8:1]/5x-1[8:1],
{9}3bxh[12:5]/7bxh[12:5],{3},{36}2x/6x,1x/5x,{2}8xq4[8:1]/4xq8[8:1],
{4}3h[6:1]/5h[6:1],5h[6:1]/8h[6:1],4h[6:1]/6h[6:1],1h[6:1]/4h[6:1],
7-2[8:1]/3-6[8:1],7/3,{12}8,5,6,1,4,3,
{4}8x<5[8:1]/4x>1[8:1],8v3[8:1]/4v7[8:1],4/8-6>5-1[4:1],{12}2,,2h[4:1],
{6},{12}B8,A6/B6/E7/E6,,B1,{6}A3/B3/E3/E4,{12}B8,A6/B6/E7/E6,{6},{4}1>4[8:1]/5<8[8:1],
1v6[8:1]/5v2[8:1],5/1-3<4-8[4:1],{12}7,,7h[4:1],
{6},{12}E2,A3/B3/E4/D4/A4/B4,,E8,{6}B6/B5/E6/A6/A5/D6,{12}E2,A3/B3/E4/D4/A4/B4,{6},{9}7bxh[12:5]/3bxh[12:5],
{3},{36}6x/2x,5x/1x,{2}8x>1-3b[8:1]/4x<5-7b[8:1],
{9}2bxh[12:5]/6bxh[12:5],{3},{36}7x/3x,8x/4x,{2}1xV75b[8:1]/5xV31b[8:1],
{4}8h[6:1]/2h[6:1],6h[6:1]/5h[6:1],7h[6:1]/1h[6:1],4h[6:1]/3h[6:1],
2/8p3[8:1]*<7-5>4[8:1],8,{12}2,4,3,7,5,6,
{4}3h[4:1],2-4[8:1],6h[4:1],7-5[8:1],
3h[4:1],2-4[8:1],6h[4:1],7,
{6}5/4,{12}7,5,,3,{4}5h[4:1],3-1[8:1],
5x-3[8:1],7x-5[8:1],1x-7[8:1]*-3[8:1],1x,
4x/6xh[4:1],8<5[8:1],3h[4:1],1>4[8:1],
6h[4:1],8<5[8:1],3h[4:1],1,
6/5h[4:1],3h[4:1],1h[4:1],7<2[4:1],
2q7[8:1],8,{12}1,8,2,7,8,6,
{4}2h[4:1],5>2[8:1],7h[4:1],4<7[8:1],
2h[4:1],5>2[8:1],7h[4:1],4,
{6}18,{12}6,8,,2,{4}8h[4:1],2>4[8:1],
8x>2[8:1],6x<8[8:1],4x<6[8:1]*>2[8:1],4x,
{12}1xh[4:1]/7xh[4:1],{3},{36}7bx/1bx,6x/2x,3x/5xw1b[8:1],{4}4x,Cf/B4/B6,
{12}2xh[4:1]/8xh[4:1],{3},{36}8bx/2bx,7x/3x,6x/4xw8b[8:1],{4}5x,Cf/B5/B3,
{4}5bx/3bx-5[8:1],3bx/7bx-3[8:1],7bx/1bx>4b[8:1],5bx/1bx<6b[8:1],
5bx/1bx-5b[8:1],1bx/5bx,{12}A8f,A4f,A6f,A1f,A5f,A3f,
{2}7xb<3[8:1],7x<5>3[8:1],
7x<6>5>4>3[8:1],{12}7xh[96:1],6xh[96:1],5xh[96:1],4xh[96:1],3xh[96:1],2xh[96:1],
{1}1x-5>4-2b[2:1]*-5<6-8b[2:1],
