&title=[HALO]
&artist=Blacklolita
&first=0.017
&des=Ebenholz
&clock_count=4
&lv_5=14
&inote_5=(150){4},,,,,,,,{1}Cfh[1:1],
{4}8bh[8:3],,,7/5,
{1}6bh[2:1]/4bh[2:1],
{4}4bh[8:3]/2bh[4:3],,,5,
{1}4bh[2:1]/6b<1v4[16:9],
{8}5/3h[4:1],4,5,3,3/5,4/6,5/7h[4:1],4,
5,7,6/4,3/5,4/2h[4:1],5,4,2,
{16}5,3,6,2,7,1,8,2,7,7,4,4,6,6,3,3,
8bv5>2[8:3],,,1,,,{8}2V86-4[4:1]*V85[4:1],{16},,,,,,,,2h[16:3],
,,4,{48},,,,,,{24}5,3,5,{8}3V17b[4:1],4h[16:1],7-4-2[4:1],6,
5h[16:1],5h[16:1],5h[16:1],5h[16:1],{2}1-7v4b[4:1],
{16}6,,,7/5,{48},,,,,,{24}4,6,4,{8}6V82b[4:1],3h[16:1],2-5-7[4:1],4,
3h[16:1],3h[16:1],3h[16:1],3h[16:1],7,{16}6,6h[8:1],,4,{8}4h[8:1],
{16}7h[16:3],,,8,{48},,,,,,{24}6,1,6,{8}1V74b[4:1],5h[16:1],4V28[4:1],6,
5h[16:1],5h[16:1],5h[16:1],5<8[8:1],8-4[8:1],1,2-6-2b[16:5],3,
{16}2,,,,,8,,,{8}7,{24}5,6,5,{8}6-8-3b[4:1],4,
3<8[4:1],2,1V36b[8:3],2,{2}1,
{16}7/8,,,4/5,{48},,,,,,{24}2,4,2,{4}4<7[8:1],4/1-5[8:1],
1/8,{8}4/7,{24}6,5,6,{8}5,6/4,2v5[16:3]/8V64b[16:3],3/5,
2/8,{24},,,,,,6,5,6,{8}5V71[4:1],{24}4,5,4,{8}5,3,
2h[16:1],2h[16:1],2h[16:1],2h[16:1],{16}2-6b[8:1],,,1,,,{8}8,
{16}7/4,,,6,{48},,,,,,{24}3,4,3,{8}4V28[4:1],{24}5,4,5,{8}4,6,
7h[16:1],7h[16:1],7h[16:1],7z3b[4:1],8,1,{4}2<4b[8:3],
{8},,,,8/2,{24}1-5[8:1],7,1,{8}7,1/8,
7<4[8:1],3,2,1s5b[4:1],{16},,,,,,,,4/7pp4[8:3],
,,4,,,{8}3,2<5[8:3]*<5[8:3],2,,4,
3V17-5b[8:3],3,,4,{2}3-8b[8:1]*-6[8:1],
{8}7,{16}5,6,,3,{8}4,8/1,{16}2,4,,7,{8}5,
8/1,{16}4,3,,6,{8}5,8/1,{16}7,5,6,4,5,3,
4<1[8:3],,,3,,,{8}2,3V57-1[8:3]*V57-1[8:3],3,,2,
3pp8b[8:3],3,,8,{2}7<5-1[4:1],
{8}2,{16}4,3,4,2,5,4,5,1,{8}6,5/7,4/8,
3>8[8:1],8-4[8:1]*-4[8:1],4<7b[8:1],7h[8:1],,8h[4:1],{16}1,2,3,4,
{8}7,{16}6,5,6,5,{8}6,5/4,{16}3,4,3,4,{8}3,
1/8,{16}7,5,6,4,5,3,{8}1/8,{16}2,4,3,5,4,6,
{4}1/8,{16}3,3,{8}5,6/4v7[8:1],2/5,4/1,2,
{16}3,3,5,5,4,4,7,7,{8}5-1[8:1],6/4,{4}5V38[8:3],
{16}8,,,7,,,{8}6,5>8[8:3]*>8[8:3],8,,7,
6qq1b[8:3],1,,2,{2}3-8[8:1],
{16}6h[16:3],,,2h[16:3],,,{8}5,{16}1/7h[16:3],,,3h[16:3],,,{8}6,
7/1,{24}5,3,5,{16}3,5,2,4,{2}1>8[4:7],
B7/B6,C,
B2/B3,{4}1,2,
3,4,{8}6h[16:1],6h[16:1],5h[16:1],5h[16:1],
7h[16:1],7h[16:1],8h[16:1],8h[16:1],6-1[8:1]/1-5[8:1],5/2,{4}1/6,
8b-4[8:1],8b/2b-6[8:1],2b/7b-4[8:1],1b/7b,
{16}2,2,{8}4,{16}3/5,5/3,,4/6,{8}6v1[8:1]/4v1[8:1],7/3,{16},,,,8b,
8b,{8}8b,7bx/1bx,5bx/3bx,2bx/4bx,8bx/1bx,{4}5bx/7bx,
{8}5b/2b,{24}3,4,3,{16}4,2,,1,{8}1v6[8:1],5,,7,
{4}8b-4[8:1],8/3,3,3/5,
4/6,6,5/6V85-1[8:3],6,
4,3,3/5,3,
6/3,6,{8}6/4,7/3,{24}8,2,8,2,8,2,
{8}8<5b[8:1],2/1,8,{16}3,3,{8}4-8b[8:1],5/3,4,{16}6,6,
{8}7-3b[8:1],6/8,7,{16}1,1,{8}2<7b[8:1],4/3,2,{16}5,5,
{8}6-1b[8:1],4-8[8:1],6,4,7-4b[8:1],2-6[8:1],7V14[4:1]*>3b[4:1],2,
7,,,6,5/4,4/3,{24}2,1,8,7,6,5,
{8}4b,{16}8,1,{8}7,2/4,5b/3b,{16}6,5,{8}7,8/4,
{16}3b,3,1,5b,5,7,4b,5,3,4b,4,2,{8}2b-6[8:1],1b,
{4}2/8-4[8:1],{8}8b>3[8:1],{24}5h[24:1],,5h[24:1],{16}8b<5[8:1],4h[8:1],,,{8}8b,{24}2h[24:1],,2h[24:1],
{16}4,4,,5/3,,6/4,{24}7,8,7,{16}8,6,1,4,3,5,2,8,
{8}8b,{16}5,7,{8}6,4/5,4b/3b,{16}2,8,{8}1,8/7,
{16}6b,6,1,4b,4,3,5b,2,7,1b,1,2,3/7b,6,5/2b,3,
{8}4/8b,{24}7,5,7,{8}5,6/4,{16}3V15b[16:3],3,,8,{4}8,
{16}7,7,3,5,5,1,4,4,2-6[8:1],2,5,5,,,,,7b,
4,6,3,4,2,8,5,6b,6,1,1,4,4,2,2,
{24}7b,6,5,4,1b,2,3,4,,7,8,7,8bx-4b[8:1],1,2,3x,7x,6x,{8}5x/8x,6x,
{16}7b,7,5,5b,6,6,{24}3b,4,3,{16}4,2,8b,5,6b,4,7,1,
5b,3,4,2b,8,1,{24}7b,5,7,{16}5,6,{24}2b,3,4,8b,7,6,1,2,3,
{8}4b/5b,5/4,6/5,6/5,7b/8b,8/7,6/1,6/1,
{16}2b,5,3,4b,7,1,8b,2,5b,4,6,2,8b,3,7,4,
6b,5,5,7b,4,4,{8}8b/3,{16}2b,7,7,1b,6,6,{8}5/2b,
{24}4/3,2,1,8,7,6,5/2,1,8,7,6,5,{2}4/1b-5<8[8:3]*-5>2[8:3],
,E7,
E6,E5,
{4}E4,,,E3,
{8},C,
E
