&title=p.h.(cover by sekai)
&artist=SEVENTHLINKS / sekai
&first=0.02
&des=古明地舞
&lv_5=13+
&inote_5=(132)
{1},
{16}5h[4:3]/3h[16:1],,3h[16:1],,3h[16:1],,3h[16:1],,3h[16:1],,3h[16:1],,2>4>2>4>2>7[4:3],,,,
{4}5,5,5,8h[12:41],
{4}6bh[8:23],,,,
{1},
{1},
{12}6,6,6h[12:3],8<1[8:3],8,8,8,,,,,,
{4}1b/7b,28,8-3[8:1]/6-1[8:1],,
{4}82,71,1-6[8:1]/3-8[8:1],,
{4}17,28,8h[32:15]/6h[32:15],,
{4}7xh[32:7]/1xh[32:7],2x>5[8:1]/8x<5[8:1],28,,
{4}3-5[12:1]/6-4[12:1],3qq2[4:1]/6pp7[4:1],,,
{16}1>3[12:1]/8<6[12:1],2,7,,1qq7[16:3]/8q5[16:3],,,,,,,,,,,,
{16}1,8,1,8,2,7,2,7,3,6,4,6,5qq2[8:3],6,,,
{8}6,6,6,6,6h[4:1],,2,,
{4}5-3-5[6:1],6,6-2-6[4:1],4,
{8}1,3h[8:5],7,,6,7,5h[8:5],,
{4}2-7[8:1],2,3h[8:7]/7h[8:7],,
{4},,7-4[8:1]/3<6[8:1],,
{4}6b-1[8:1]/5b-1[8:1],65,1h[4:1]/2>4[12:1],,
{4}8h[4:1]/1>4[8:1],,7h[4:1]/8>4[8:1],,
{4}3-8[8:1]/4-8[8:1],34,8h[4:1]/7<5[12:1],,
{4}1h[4:1]/8<5[8:1],,2h[4:1]/1<5[8:1],,
{4}3p6[8:1]/7>2[8:1],37,3p6[8:1]/7>2[8:1],3x/7x,
{4}3p6[8:1]/7>2[8:1],37,3p6[8:1]/7>2[8:1],3x/7x,
{4}7/2-8[12:1],7<5[12:1],1<8-4[8:1],,
{4}3h[4:3],5-8b[8:1],5,,
{8}2b/4b,31,2-7[8:1]/4,31,2/5h[4:1],,,,
{8}86,75,8<1v4[8:3]/6,75,86,,7<5[12:1],,
{8}4,3,2-6-1[16:5]/7-3-8[16:5],27,27,,,,
{8}27,18,2-6-2[16:5]/7-3-7[16:5],18,27,,,,
{8}2b/4b,31,2>5v4<7[8:3]*>5v4<7[8:3]/4,31,2,,,,
{8}75,86,7/5<4[16:5]*<1q5[16:5],86,5,,,,
{8}45,45,43,42,45,45,56,57,
{4}3qq2[8:3]/6pp7[8:3],,,3-7-3-7[8:5]/6-4-6-4[8:5],
{4},,,6-2-6-2[8:5]/3-5-3-5[8:5],
{4},,,3qq2[16:3],
{4}6pp7[16:3],3>8[8:1],6q3[8:1],2<7>2<7[4:3]*p6q3p6[4:3],
{4},,,,
{32}B1,B2,B3,B4,B5,B6,B7,B8,B1,,,,,,,,E8,E7,E6,E5,E4,E3,E2,E1,E8,,,,,,,,
{32}A1,A2,A3,A4,A5,A6,A7,A8,A1,,,,,,,,8,7,6,5,4,3,2,1,8/3-8[8:1]*-7[8:1],,,,,,,,
{4}3,1/6-1[8:1]*-2[8:1],6,2pp5qq4[4:3]/8qq5pp6[4:3],
{4},,,,
{4}6b-1[8:1]/5b-1[8:1],65,1h[4:1]/2>4[12:1],,
{4}8h[4:1]/1>4[8:1],,7h[4:1]/8>4[8:1],,
{4}3-8[8:1]/4-8[8:1],34,8h[4:1]/7<5[12:1],,
{4}1h[4:1]/8<5[8:1],,2h[4:1]/1<5[8:1],,
{4}3p6[8:1]/7>2[8:1],37,3p6[8:1]/7>2[8:1],3x/7x,
{4}3p6[8:1]/7>2[8:1],37,3p6[8:1]/7>2[8:1],3x/7x,
{8}7/2-8[12:1],2,7<5[12:1],7,1<8-4[8:1],1,5,5,
{4}2h[4:3],8h[128:31],B7f`B6,,
{8}2b/4b,31,2<7[8:1]/4,31,2/5h[4:1],,,,
{8}86,75,8<1v4[8:3]/6,75,86,,7<5[12:1],,
{8}4,3,2-6-1[16:5]/7-3-8[16:5],27,27,,,,
{8}27,18,2-6-2[16:5]/7-3-7[16:5],18,27,,,,
{8}2b/4b,31,2>5v4<7[8:3]*>5v4<7[8:3]/4,31,2,,,,
{8}75,86,7/5<4[16:5]*<1q5[16:5],86,5,,,,
{8}45,45,43,42,45,45,56,57,
{4}3qq2[8:3]/6pp7[8:3],,,2q7[2:1]/3<7[2:1],
{4},,,7p2[2:1]/6>2[2:1],
{4},,,2h[4:1]/3qq7[8:3],
{4},6pp3[8:3],8,5,
{24}3x,2x,1x,8x,7x,6x,3x,2x,1x,8x,7x,6x,3x,2x,1x,8x,7x,6x,4bqq2[8:1]/5bpp7[8:1],,,,,,
{4},3qq2[16:3]/6pp7[16:3],36,,
{4}8h[8:1]/3h[8:1],6h[8:1]/1h[8:1],8h[8:1]/3h[8:1],6pp3>6pp2[4:3]/1h[8:1],
{4}3h[8:17],,,,
{4}2h[32:7],1xh[32:7],8xh[32:7],7xh[8:1],
{8}2,7,18,27,16,83,16,27,
{8}2<7-3b[8:3]/4,31,2b/5h[2:1],,,,,,
{8}86,75,8<1v4[8:3]/6,75,86,,7<5[12:1],,
{8}4,3,2-6-1[16:5]/7-3-8[16:5],27,27,,,,
{8}27,18,2-6-2[16:5]/7-3-7[16:5],18,27,,,,
{8}2b/4b,31,2>5v4<7[8:3]*>5v4<7[8:3]/4,31,2,,,,
{8}75,86,7/5<4[16:5]*<1q5[16:5],86,5,,,,
{8}45,45,43,42,45,45,56,57,
{4}1h[32:7]/8h[32:7],2xh[32:7]/7xh[32:7],3x/6xh[4:1],2q7p2q7[2:1],
{4}5bh[2:1],,,7p2q7p2[2:1],
{4}4h[2:1],,,2v7[8:1]/7v2[8:1],
{4}27,3v6[8:1]/6v3[8:1],36,2pp4[8:1]/7qq5[8:1],
{4}27,3qq1[8:1]/6pp8[8:1],36,2q7p2q7[2:1],
{4}5bh[2:1],,,7p2q7p2[2:1],
{4}4h[2:1],,,2v7[8:1]/7v2[8:1],
{4}27,3v6[8:1]/6v3[8:1],36,4v3qq1[8:3],
{4}5,5>5[2:1],,,
