&title=狂響のフォーチュネットポルカ (Massive New Krew Remix)
&artist=あやぽんず,あよ,Massive New Krew
&first=0
&des=LC vs 7Ea.
&des_5=LC vs 7Ea.
&lv_5=14
&inote_5=(168){4},,,,{1}2bV48[4:13]/7bV51[4:13],
{4},,,,,,,,,,,4b/5b,
1b-5[8:1]/2b-4[8:1],1-7[8:1]/2-6[8:1],1-5[8:1]/2-4[8:1],1/2,
{8}7b/8b,6,5x/4x,3,{2}1x<6[8:1]/2xp5[8:1],
{4}8b-4[8:1]/7b-5[8:1],8-2[8:1]/7-3[8:1],8-4[8:1]/7-5[8:1],8/7,
{8}2b/1b,3,4x/5x,6,{4}7x/8x>3[8:1],{8}5,6,
{4}7p3[8:1],{8}7/2,1-5[8:1],,6/1>4[8:1],,8,
{4}8-4[8:1],8/5>2[8:1]*<8[8:1],5,{8}1v6[8:1],8,
{4}1/7-4[8:1],{8}3,3-8[8:1],,3/6,,5h[4:1],
,,{4}3>6[4:7],,,{1}Ch[4:7],
{4},,8b,8b,
{8}1h[4:1],8,7h[4:1],8,1h[4:1],8,7h[4:1],8,
2h[4:1],8,6h[4:1],8,3-6[8:1],5,{4}7,
{8}8h[4:1],1,2h[4:1],1,8h[4:1],1,2h[4:1],1,
7h[4:1],1,3h[4:1],1,6-3[8:1],4,{4}2/6b,
{8}1h[4:1],8,7h[8:1],{16}2,1,{8}3h[8:1],{16}8,1,{8}7h[8:1],{16}2,1,
{8}3h[8:1],{16}8,1,{8}7-4[8:1],6,7/3-8[8:1],2,{4}3/7,
{8}6h[4:1],8,2h[8:1],{16}7,8,{8}6h[8:1],{16}1,8,{8}2h[8:1],{16}7,8,
{8}6h[8:1],{16}1,8,{8}2-5[8:1],3,2/6-1[8:1],7,{4}6/2,
{1}4<6-3b[1:1]/8>2-7b[1:1],
{8},,,,2v5[8:1]/8v5[8:1],7/3,{4}8bx/2bx,
{8}6/4,{16}3,5,{8}2-5[8:1],1,2/8-4[8:1],7,8/2,1-5[8:1],
6-8[8:1],1,6,3,{4}7v4[8:1]/1v4[8:1],7b/1b,
{8}3/5,{16}6,4,{8}7-4[8:1],8,7/1-5[8:1],2,1/7,8-4[8:1],
3-1[8:1],8,3,6,{16}2-5[8:1],8,2,8,{4}2,
{8}4/6,{16}7,5,{8}8p4[8:1],1,8/2-6[8:1],1-5[8:1],2,1,
{16}3,4,3,4,2,5,2,5,{8}1>4b[8:1]*q5b[8:1],8/6,{4}1b,
{8}7pp6[2:1],,,5,{4}5,C,
{8}2qq3[2:1],,,4,{4}4,C,
{8}7pp6[2:1],,,5,{2}5-3[8:1],
{4}2h[4:1],{12}4,3,5,{4}4-8[8:1],6,
{8}6qq7[2:1],,,8,{4}8,C,
{8}3pp2[2:1],,,1,{4}1,C,
7b-5[8:1]/8b-4[8:1],8-2[8:1]/7-3[8:1],8/7<4[8:1],{8}7,1-5[8:1],
,1/6,7,7,8,8,1,1,
{16}2x,5,3,4,2x,5,3,4,{4}2x-6[8:1],{16}2b/8b/B2,Cf,{8}B6,
{4}1-5b[8:1]/7-5b[8:1],1b/7-3b[8:1],{16}7<4[8:1],,,1x,{8}7x,8x,
6/1x-3[8:1],1x-7[8:1],{4}1x-5[8:1],{8},6,7/8,1,
5/2-5[8:1],{16}3,4,{8}2,6,4/7-4[8:1],{16}6,5,{8}7,3,
{16}1,8,1,8,2,7,2,7,{8}3>6[4:1],4x/5x,{4}6x<3[4:1],
5-1b[8:1],5bV73b[4:1],{16}5,,,2,{8}2-6[8:1],4/1-7[8:1],
2-4[8:1],1-5[8:1],2qq6[8:3],1,2,5bx,{4}5bx,
{8}4/7-4[8:1],{16}6,5,{8}7,3,5/2-5[8:1],{16}3,4,{8}2,6,
7-5b[8:1]/8-4b[8:1],1,{4}7b-3b[8:1]/8b-2b[8:1],7b/8b,{32}4w8[8:1],5,6,7,8,1,2,3,
{4}4,{8}6-3[8:1]/2-5b[8:1],7/1,{4}2/6,{8}7p3[8:1],8,
7/1-5[8:1],2,1/8,6,{16}7,8,7,8,{8}7<4[8:1],6/1,
8/7-3[8:1],{16}2,2,{8}7,1,8/2-6[8:1],{16}7,7,{8}2,8,
{16}3,5,3,5,2,4,2,4,{8}1-5[8:1],7/3,{4}1b,
8-4b[8:1]/2-4b[8:1],8b/2-6b[8:1],{16}2>5[8:1],,,8,{8}2,1,
{16}7,6,7,6,{8}7-2[8:1],5,7/3-8[8:1],4b,{4}3b/5,
{8}6-1[8:1],{16}7,8,{8}6,2,8/3-8[8:1],{16}2,1,{8}3,7,
{16}6,1,7,8,6,1,7,8,{32}6,5,4,3,2,1,8,7,{4}6/3b,
{8}1/5,{16}7-4[8:1],8,{8}6,7/1,3,{16}2-5[8:1],1,{8}3,2/8,
6pp1[8:3],4,6/2>5[8:1],3,{2}2,
{8}7/2x-5[8:1],1,2/7x-4[8:1],8,7/3x-8[8:1],2,3/6x-3[8:1],7,
6/2x>5[8:1],1,2/8x-4b[8:1],1,{4}8/4x,{8}2b/7bv4[8:1],8,
7/3x-8[8:1],2,3/5x-7[8:1],6,5/2x-4[8:1],1,2/8x-6b[8:1],1,
{4}8/2-4b[8:1],2/1-5b[8:1],1/3,3b/6b,
(181)6/1x<7[8:1],6/1x>3[8:1],{8}6/1x-7[8:1],{16}6,5,{8}4/1x-3[8:1],4,
1/5x-7[8:1],6,5/4x-8[8:1],3,4/5,6b,6b,1/8,
8/1,{24}8b/1b,7x/2x,6x/3x,{8}5x/4x,6/3,1/2,{24}1b/2b,8x/3x,7x/4x,{8}6x/5x,7/4,
3v8[8:1],7<4[8:1],3x,7x,{4}1bw5[8:1],1b,
8x>2[8:1],3/8x<6[8:1],{8}3/8x-2[8:1],{16}3,4,{8}5/8x-6[8:1],5,
8/4x-2[8:1],3,4/5x-1[8:1],6,5/4x,3b,3b,6/3,
1/8,{24}1b/8b,2x/7x,3x/6x,{8}4x/5x,3/6,8/7,{24}8b/7b,1x/6x,2x/5x,{8}3x/4x,2/5,
6v1[8:1],2>5[8:1],6x,2x,{4}8bw4[8:1],8b,
6/2-7[8:1],2/6-8-5-1[8:3],6/2-4[8:1],2,
{8}8,{16}2,4,{8}3<5p1b[4:1],5/2,3/6,,,8/7,
6/5,{16}3b,4b,{8}3b,5/6,7/8,{16}2b,1b,{8}2b,4/3,
2/1,{24}1b/2b,3/8,4/7,{8}5/6,7/4,{4}5bw1[8:1],5x,
6b/5b,{8}3bx/4bx,3bx/5bx,{16}6bx/7bx,,,4bx/2bx,s,,3x,3x,
{8}4,{16}6x,6x,{8}5qq1[4:1],7,{4}5x,{8}7,7,
{4}6x/3x<6[8:1],3/E8f/A7/B7/A8/B8/D8,2/8x<5[8:1],8/E4f/B4/B3/A4/A3/D4,
{8}2-4[8:1],1-5[8:1],2qq6[4:1],1,{2}2,
{4}7/8-3[8:1],{32}8x/7x,E7,B6,B5,{8}E5,{4}2/1-6[8:1],{32}1x/2x,E3,B3,B4,{8}E5,
1-5[8:1],8-4[8:1],1V37[4:1],8,{2}1,
(168){4}6x-3-5[4:1],6/3,2x-7-1[0.3571##0.3571],2/7,
(160){8}6,5,(150)4,3h[8:3],,,,,(161)8x/Cf,
7,6,5,4x/B8f,3,2,1,
5x/B2f,5,6,6,7x/E4f,{16},,,,2x,3x,
{8}4x/Cf,4,5,5,6x/B4f,6,5,5,
(178)5/4-8[0.3368##0.168],(178.2917),(178.5833)4/5-1[0.3357##0.1674],(178.875),(179.1667)5/3-8[0.3346##0.1669],(179.4583),(179.75)3/6-1b[0.3335##0.1664],(180.0417),
(180.3333)6/4-1b[0.3325##0.1658],(180.625),(180.9167)4/5-8b[0.3314##0.1653],(181.2083),(181.5)5/4-2b[0.3303##0.1648],(181.7917),(182.0833)4/5,(182.375),
(182.6667)5pp5[0.3282##0.1637]*-3[0.3282##0.1637],(182.9583),(183.25),(183.5417),(183.8333)1qq1[0.3261##0.1627]*-3[0.3261##0.1627],(184.125),(184.4167),(184.7083),
(185){16}4b/2bh[16:1],,,5b/7bh[16:1],,,{8}4b/3bh[16:1],{2}6b/Cf,
E
