&title=味噌汁とバター
&artist=汐れいら
&first=0
&des=カツカリーパンとチョコパフェ
&lv_5=13+
&inote_5=(197)
{1},,
{12}3,,3,4,,4h[12:15],,,,B2/E3,,,
{12},,,B2/E3,,,,,3,4,,4,
{12}2,,2,8,,8h[12:15],,,,B6/B5,,,
{12},,,B6/B5,,,,,1,8x,,,
{12}6,,6,5,,5h[12:15],,,,B7/E7,,,
{12},,,B7/E7,,,,,6,5,,5,
{12}7^1[4:1],,,B8,,,3^5[4:1],,,B4,,,
{12}7^1[4:1],,,B8,,,4,,4,3xb>5[12:11]/5xb,,,
{12}8h[12:11],,,,,,,,,,,,
{12},,3,4,,6,5,,18,2b/7b,,,
{12},,,B3/B4/A7/E7,,,,,,E2/A2/B5/E5,,,
{12},,,B3/B4/A7/E7,,,,,,E2/A2/B5/E5,,,
{12},,,D8/B7/E3/E4,,,,,,D2/B1/E5/E6,,,
{12},,,D8/B7/E3/E4,,,,,,D2/B1/E5/E6,,,
{12},,,A3/B3/A8/E8,,,,,,B1/B2/A6/E6,,,
{12},,,A3/B3/A8/E8,,,,,,B1/B2/A6/E6,,,
{12},,,D8/B7/E3/E4,,,,,,D2/B1/E5/E6,,,
{12}3x,6x,3x,6x,,7x-2b[32:5],2xh[6:1],,,,,,
{12}3/4h[4:1],,,E2,,,7/5h[4:1],,,E2,,,
{12}3/4h[4:1],,,E2,,,6,,6,5,,,
{12}4/7h[4:1],,,5h[4:1],,,4h[4:1],,,2,,,
{12}1,,1,7,,,2v4[8:1]/6v8[8:1],,,,,,
{12}6/5h[4:1],,,E8,,,2/4h[4:1],,,E8,,,
{12}6/5h[4:1],,,E8,,,3,,3,4,,,
{12}4/6,,,1,,,46,,2,8,,73,
{12},,6,5,,3,4,,18,2x/7x,,,
{12}3-5[8:1],,,5,,,7-1[8:1],,,1,,,
{12}2,,2,4,,4,3h[4:1],,,1,,,
{12}8-2[8:1],,,2,,,4-6[8:1],,,6,,,
{12}7,,7,8,,8,6h[4:1],,,5,,,
{12}1^4[4:1],,,4^7[4:1],,,7,,,1,,,
{12}8^5[4:1],,,5^2[4:1],,,2,,,8,,,
{12}5-7[8:1]/1-5[8:1],,,,,,8-4[8:1]/4-2[8:1],,,,,,
{12}5pp4[2:1]/3qq4[2:1],,,5xb/3xb,,,,,,,,,
{12}6-4[8:1],,,4,,,2-8[8:1],,,8,,,
{12}7,,7,5,,5,6h[4:1],,,8,,,
{12}1-7[8:1],,,7,,,5-3[8:1],,,3,,,
{12}2,,2,1,,1,3h[4:1],,,4,,,
{12}2x/4,,,35,,,4/6h[4:1],,,7,,,
{12}7x/5,,,64,,,5/3h[4:1],,,2,,,
{12}2x/8x,,3,4,,4,2x,,6,5,,5,
{12}8x,,3,4,,4,8x,4,2,6x,,,
{12}4xbV25b[16:7]*pp5b[16:7]/8xb,,,,,,,,,,,,
{12}8b/7^4[8:1],,,1,,,1/2^5[8:1],,,8,,,
{12}7,,7,5,,5,1,,1,3,,3,
{12}6^1[8:1],,,5,,,4/3^8[8:1],,,5,,,
{12}6,,6,8,,8,4,,4,2,,2,
{12}8-4[8:1],,,4,,,2,,2,7,,7^2[4:1],
{12},,2^5[4:1],,,5^8[4:1],,,,1,,,
{12}2-7[8:1],,,7,,,6,,6qq3b[16:12],3,,E1f/B8/B1,
{12},,,,,,,,,,,,
{12}2b^5[8:1]/1,,,6,,,7^4[8:1]/8,,,3,,,
{12}2,,2,4,,4,8,,8,6,,6,
{12}3^8[8:1],,,7,,,6^1[8:1]/5,,,2,,,
{12}3,,3,1,,1,5x,,5xh[12:4],,,,
{12}8bqq3[24:13],,,4,,4,,,2,,,8bpp5b[24:13],
{12},,,4,,,6,,,8,,,
{12}5b/6b,,,3/4,,,18,,2>7[12:4]/7,27,,E5,
{12},,,8h[4:1],,,5,6,4,5,3,4,
{12}1xb-5b[8:1],,,,,,6h[4:1]/4,,,8,,,
{12}5/3,,3,1,,,4/6,,6x,8x,,8x,
{12}4xb-1b[8:1],,,,,,3h[4:1]/8,,,4,,,
{12}1/6,,6,5,,,3/8,,3x,4x,,4x,
{12}8xb^3b[8:1],,,,,,6/4h[4:1],,,8,,,
{12}7/5,,7,1,,,6/4,,4x,8x,,8x,
{12}6x^3b[12:2],,,1,,,7p2[12:2],,,1,,,
{12}8xv1b[12:2],,,4,,,5,4,6h[12:3],5h[12:2],,,
{12}4b/7,,,1b/5-7-4-8[8:9],,,,,,,,,
{12},,,,,,,,,,,,
{12}2/5b,,,4-6-3-7[8:9]/8b,,,,,,,,,
{12},,,,,,,,,,,,
{12}5b/7,,,1-6-2-5[8:9]/4b,,,,,,,,,
{12},,,,,,,,,,,,
{12}3/4b,,,8b-4b[4:1]/5-1[4:1],,,,,,,,,
{12}A2/A6/B2/B6/Cf,,,,,,,,,,,,
{12}5x/7x,,,3x/4xqq5[8:9],,,E7/B6,,,,,,
{12},,,,,,E7/B6,,,,,,
{12}4x/2x,,,6x/5xpp3[8:9],,,B2/E3,,,,,,
{12},,,,,,B2/E3,,,,,,
{12}7x/5x,,,3x/4xpp1[8:9],,,B8/E1,,,,,,
{12},,,,,,B8/E1,,,,,,
{12}4h[1:1]/7x,,,,,,,,,,,,
{12}1,,1,5,,5,7,,7,3,,3,
{12}8b-4[8:1],,,2,,,8^3[8:1],,,6,,,
{12}8-4[8:1],,8,2,,,8^3[8:1]*^5[8:1],,,,,,
{12}24,,2,8,,,56,,5,8,,,
{12}24,,2,8,,8h[4:1],,,1,7,,,
{12}2-8[32:7],,,8-3[32:7],,,3-7[32:7],,,7,,,
{12}8-3[32:7],,,3-7[32:7],,,7-4[32:7],,,4,,,
{12}3-7[32:7],,,7-4[32:7],,,4-6[32:7],,,8,,,
{12}1,,,2x/8x,,2xh[12:4]/8x,,,,4,3,4,
{12}1b-5[8:1],,,7,,,1^6[8:1],,,3,,,
{12}1-5[8:1],,1,7,,,1^6[8:1]*^4[8:1],,,,,,
{12}75,,7,1,,,43,,4,1,,,
{12}75,,7,1,,1h[4:1],,,8,2>6[4:1],,,
{12}6b,,,8,,8h[4:1],,,6,7<3[4:1],,,
{12}3b,,,1,,1h[4:1],,,3,2,,,
{12}4>8[4:1]/6,,,8x<4b[4:1],,,4>8[4:1],,,8x<4b[4:1],,,
{12}4>4[2:1],,,8xb,,,4>4[2:1],,,8xb,,,
{12}4>4b[2:1],,,Cf,,,4>4b[16:8],,,Cf,,,
{12}4xpp2[12:5]*pp1[12:5],,,,,,,,,,,,
{12}1x,8x,1x,7,2,7,3,6,3,4x/5b,,,
{12}3/7-4[8:1],,,8,,,5^8[8:1]/2,,,4h[4:1],,,
{12}1,,1,3,,3,8,,8,6,,6,
{12}1^6[8:1],,,3,,,1-5[8:1]/4,,,8h[4:1],,,
{12}4,,4,6,,6,7,,7,1,,1,
{12}3,,,28,,2V48[8:3],,,7-5[8:1],,,7bpp3[12:7]*qq4[12:7],
{12},,,,,,,,,,,,
{12}4^1[8:1]/6^1[8:1],,,46,,,37,,2-6[8:1],4x,,8b,
{12},,7,5,,2,4,,,8,1,8,
{12}2-5[8:1],,,1,,,4^1[8:1]/7,,,5h[4:1],,,
{12}8,,8,6,,6,1,,1,3,,3,
{12}8^3[8:1],,,6,,,8-4[8:1]/5,,,1h[4:1],,,
{12}5,,5,3,,3,2,,2,8,,8,
{12}6b<4[16:5],,,2,,,5,,5<3qq6b[12:10],,,1b,
{12},,,,,,,,,8-4[8:1],,,
{12}3-1[8:1]/8b,,,7-5[8:1]/3,,,8/7,,1V36[12:4],4xV27b[12:3],,A2/D3f/A3,
{12},,,,,,{24}1v2-4[12:3],,,,,,{12},,,
{12}6xp4[12:7],,,,,,1,,,,,3q5[12:7],
{12},,5,5,,,8,,,7,,,
{12}6xp4[12:7],,,,,,1,,,,,3q5[12:7],
{12},,5<8[12:4],5,,,,,,,,,
{12}3xpp3[12:7],,,,,,8,,,,,7qq7[12:7],
{12},,5,5,,,1,,,2,,,
{12}3xpp3[12:7],,,,,,8,,,,,7qq6[12:5],
{12},,5>2[12:2],5,,,,,,8xh[12:1]/1xh[12:1],,,
{12},,,{32}D4,E4h[32:119],E5,E6h[32:117],D6,,,,{12},,,,,,,
E
