&title=circles!
&artist=nekodex
&first=0.01
&des=Mtlas
&lv_5=13+
&inote_5=(184)
{16},,,,,,,,5<5s1q8[8:8],,,,,,,,,,,,,,,,,,,,,,,,6,,,,6,,,,6,,,,6,,3,,6,,2,,6,,1,,6,,1,,6,,,,3,,,,3,,,,3,,,,3,,6,,3,,7,,3,,8,,3,,8,,3,,
{16}27,,36,,4,,4,,4,,5,,5,,5,,5,,5,,4,,5,,4,,5,,4,,5,,4,,6,3,6,3,6,3,6,3,6,2,6,1,5,8,4,7,3b<3b[8:3],,,,,,,,,,,,,,,,
{16}17,,45,,28,,45,,17,,45,,28,,45,,17,,45,,28,,45,,6bq2[8:1],,2b,,6b,,,,46,,8,,35,,1,,46,,8,,35,,1,,46,,8,,35,,1,,2bp6[8:1],,6b,,2b,,,,17,,4,,28,,5,,17,,4,,28,,5,,17,,4,,28,,5,,3bv6[8:1],,6b,,3b,,,,35,,18,,46,,18,,35,,18,,46,,18,,35,,18,,46,,18,,7bv2[8:1],,2b,,7b,Cf,,,
{16}37,,4,,37,,6,,37,,4,,37,,6,,37,,4,,37,,6,,5b-1[8:1],,1b,,5b,,,,26,,3,,26,,5,,26,,3,,26,,5,,26,,3,,26,,5,,4b-8[8:1],,8b,,4b,,,,37,,8,,37,,2,,37,,8,,37,,2,,37,,8,,37,,2,,1b-5[8:1],,5b,,1b,,,,26,,7,,26,,1,,26,,7,,26,,1,,2b>6-2[8:2]/6b<2-6[8:2],,,,,,Cf,,,,,,,,,,
{16}1x7,2h[8:1]x,7,,7,,7,2x,8/3hx[8:1],,8,,8,,8/3x,4hx[8:1],7,,7,,7,,7/5b,,7/4b,,7/3b,,7/2b,,2/8x,7hx[8:1],2,,2,,2,,1x/7,6hx[8:1],1,,1,,1,,2/6x,5hx[8:1],2,,2,,2,,2b/1b,,2b/8b,,2b/7b,,2b/6b,,,,6/4x,3xh[8:1],6,,6,,6,3x,5/2hx[8:1],,5,,5,,5/2x,1hx[8:1],6,,6,,6,,6/8b,,6/1b,,6/2b,,6/3b,,3/5x,6xh[8:1],3,,3,,3,,4/6x,7hx[8:1],4,,4,,4,,3/7x,8hx[8:1],3,,3,,3,,6b,,8b-4[8:1],,,,8b,,,,6h[8:2],,B6,,3h[8:2],,B3,,8h[8:2],,B8,,1h[8:2],,B1,,7h[8:2],,B7,,2h[8:2],,B2,,5h[8:1],,1,,4h[8:1],,8,,4,,8,,5,,1,,6,,2,,7,,3,,26,,26,,15,,15,,6b,,2b,,1b/8b,,,,1-5[8:1],,1,,8-4[8:1],,8,,1-3[8:1],,1,,8-6[8:1],,8,,1-5[8:1],,1,,8-4[8:1],,8,,1>3[8:1],,1,,8,,8<8[8:7],,,,E8,,E7,,E6,,E5,,E4,,E3,,E2,,E1,,,,,,,,Cf,,,,,,,,
{16}6h[16:12],,,,,,7,,8,,,,1,,,,,,,,2h[16:8],,,,8,,7,,6,,,,5,,5,,,,6,,1,,,,1,,,,,,,,18,,,,2,,7,,3,,6,,45,,,,,,3pp8[8:4],,3,,,,6,,,,,,,,7>1<5[8:4],,,,7,,3,,,,2,,1,,,,,,18,,1-4[8:8]/8-5[8:8],,,,27,,,,E8/E2,,,,B7/B2,,,,B6/B3,,,,E6/E4,,,,
{16}4h[8:
1],E5,E6,E7,E8/8h[8:
1],E1,E2,E3,E4/4h[8:
1],E5,E6,E7,E8/8h[8:
1],E1,E2,E3,E4/4h[8:
1],E5,E6,E7,E8/8h[8:4],E1,E2,E3,4b,,,,4b,,,,5h[8:1],E5,E4,E3,E2/1h[8:1],E1,E8,E7,E6/5h[8:1],E5,E4,E3,E2/1h[8:1],E1,E8,E7,E6/5h[8:1],E5,E4,E3,E2/1h[8:4],E1,,,,,,,2b,,3b,,
4h[8:1],5,6,7,8h[8:1],1,2,3,4h[8:1],5,6,7,8h[8:1],1,2,3,4h[8:1],5,6,7,8h[8:4],1,2,3,4b,,,,4b,,,,5h[8:1],4,3,2,1h[8:1],8,7,6,5h[8:1],4,3,2,1h[8:1],8,7,6,5h[8:1],4,3,2,1h[8:1],8,7,6,5bh,,,,2b,,,,
1b<5[8:2],,,,5>1[8:2],,,,1<5[8:2],,,,5>1[8:2],,,,1pp5[8:4],,,,,,,,6b,,,,,,7b,,8b>4[8:2],,,,4<8[8:2],,,,8>4[8:2],,,,4<8[8:2],,,,8qq4[8:4],,,,,,,,2b,,,,,,3b,,4b-6-8[8:2],,,,8-2-4[8:2],,,,4-6-8[8:2],,,,8-2-4[8:2],,,,4pp8[8:4],,,,,,,,3b,,,,,,2b,,1b-7-5[8:2],,,,5-3-1[8:2],,,,1-7-5[8:2],,,,5-3-1[8:2],,,,1qq4[8:4],,,,,,,,,,,,,,,,
{8}C,E1,,,C,E2,,,C,E3,,,C,E4,,,C,E5,,,C,E6,,,C,E7,,,C,E8,,,
{16}8,,,,7,,,,6,,,,5,,,,4,,,,3,,,,2,,,,1,,,,1,2,3,4,5,6,7,{32},8x,1x,2x,3x,4x,5x,6x,7x,8x,1x,2x,3x,4x,5x,6x,7x,8x,1x/5bx<5[8:3],,,,,,,,,,,,,,,,,,,,,,,,,,,,,,,,
{16}8<4[8:2]/4,,,,4,,,,3,,,,2,,28,,2,,26,,2,,27,,8b,,2b,,7b,,,,
{16}18,,,,27,,,,3,,,,5,,4,,,,45,,,,45,,37,,45,,26,,,,
{16}67,,,,18,,,,23,,,,2,,7,,,,27,,,,27,,5,,27,,4,,,,
{16}45,,,,18,,,,26,,,,18,,18,,,,37,,,,18,,57,,18,,24,,,,
{16}2,,,,7,,,,18,,,,1-5[16:1],,8-4[16:1],,1-3[16:1],,8-6[16:1],,8,,,,1b,,2b,,3b,,,,
{16}6,,,,1,,,,16,,,,8,,7,,,,87,,,,8/7-3[8:1],,6,,8-4[8:1]/7,,1,,8,,6,,,,4,,,,3,,,,2,,1,,,,18,,,,1-5[16:1],,8-4[16:1],,1-3[16:1],,8-6[16:1],,,,8,,,,1,,,,46,,,,35,,2q5[8:4]/7p4[8:4]
,,18,,,,,,Cf,,,,,,,,,,
{8}1bx/2bx,,8bx/7bx,,5bx/6bx,,3bx/4bx,,1bx/2bx,,8bx/7bx,,5bx/6bx,,3bx/4bx,,5bx/6bx,,8bx/7bx,,1bx/2bx,,3bx/4bx,,8bx/7bx,,1bx/2bx,,3bx/4bx,,5bx/6bx,,7b-3[8:1],7b,8b-4[8:1],8b,1b-5[8:1],1b,2b-6[8:1],2b,3b-7[8:1],3b,4b-8[8:1],4b,5b-1[8:1],5b,6b-2[8:1],6b,,,1,,2,,2,,2,,36,,36,,36,,45,C,36,C,27,C,18,C,18,57,18,24,18,,6b/7b,,4b/5b,,2b/3b,,1b/8b,,2b/3b,,4b/5b,,6b/7b,,1b/2b,,8b/7b,,4b/6b,1b,35,8b,46,1b,35,8b,17,4b,28,5b,17,4b,28,5b,{16}4,5,4,5,4,6,3,6,4,5,4,5,{32}4,3,2,1,8,7,6,5,4b>4[8:2]/Cf,
