&title=かなしばりに遭ったら
&artist=あばらや
&first=-0.2
&lv_5=14
&des=这歌好好听
&inote_5=(154){1},{24}1,2/8,3/7,
{2}6/4qq6[4:1],B8,
4-1[8:1],{16}D8,,,,,,,4,
{2}5pp3[2:1],5-8[8:1],
{4}6h[4:1],{8}2,2,3h[4:1],7,{4}8-5b[8:1]*qq4[2:1],
{2}8,E8,
{8}3,3,5,5,{4}4-6[8:1],7-3-1[4:1],
,,{2}1h[4:1]/5h[4:1],
{8}C,,,,,3/5,6/2,7,
{4}5p2[4:1]/8<6[8:1],8,{16}5h[8:1],,,6h[8:1]/4h[8:1],,,{8}7/3-1[8:1],
1-5[8:1],5,{4}6,{16}8h[8:1],,,7h[8:1]/1h[8:1],,,{8}2/6,
{4}4q7[4:1]/7<4[8:1],7,{16}4h[8:1],,,5h[8:1]/3h[8:1],,,{8}6/2-4[8:1],
4-8[8:1],8,{4}8,{16}5h[8:1],,,6h[8:1]/4h[8:1],,,{8}3/7,
{4}1q4[4:1]/6-1[8:1],1/6,{16}1h[8:1],,,2h[8:1]/8h[8:1],,,{8}3/7-5[8:1],
5-1[8:1],1,{4}1,{16}5h[8:1],,,4h[8:1]/6h[8:1],,,{8}3/7-4<5[8:1],
5-8[8:1],1,{4}2z6[8:3],{16}5h[8:1],,,7h[8:1],,,{8}1,
8-4[8:1],6/2,,,,6/4,3/7,2,
{4}4q7[4:1]/1>3b[8:1],1,{16}4h[8:1],,,3h[8:1]/5h[8:1],,,{8}2/6-8[8:1],
8-4[8:1],4,{4}3,{16}1h[8:1],,,2h[8:1]/8h[8:1],,,{8}7/3,
{4}5p2[4:1]/2>5b[8:1],2,{16}5h[8:1],,,4h[8:1]/6h[8:1],,,{8}3/7-5[8:1],
5-1[8:1],1,{4}3,{16}4h[8:1],,,3h[8:1]/5h[8:1],,,{8}6/2,
{4}8p5[4:1]/3-8b[8:1],3,{16}8h[8:1],,,7h[8:1]/1h[8:1],,,{8}6/2-4[8:1],
4-8[8:1],8,{4}6,{16}4h[8:1],,,5h[8:1]/3h[8:1],,,{8}6/2-5>4[8:1],
4-1[8:1],8,{4}7s3[8:3],{16}4h[8:1],,,2h[8:1],,,{8}8,
1-5[8:1],6-8[8:1],{4}1<2[4:1],,6-4b[8:1],
{2}1-5[8:1],{16}6,4,6,4,{8}5<7[8:1],{16}3,5,
,,{8}2,1,8,{16}5,6,5,6,{8}3,{16}2,4,
{4}3h[4:1],8,{16}4,6,4,6,{8}5>3[8:1],{16}7,5,
,,{8}8,1,2,{16}5,4,5,4,{8}7,{16}8,6,
{4}4h[8:1],{16}3h[8:1],,,5,{8}3h[8:1],5,{4}5/3h[8:1],
{8}5h[16:1]/3h[16:1],5h[16:1]/3h[16:1],4h[16:1]/6h[16:1],6h[16:1]/4h[16:1],5/3,7/2,{16}1/6,8,7,6,
{8}3p6>5-2b[1.5584##0.7792]/5p8<7-4[1.5584##0.7792],3h[8:5]/5h[8:5],,,,,,,,,,,,,{4}3-5[8:1]/7-4[8:1],
7/3b-8[8:1],3/5,4/6-2[8:1],{8}3,1-4[8:1],
,1h[4:1],,4,{2}3-7[8:1]/5-2[8:1],
1-4b[8:1]/8-5b[8:1],{4}3-6[8:1],{8}3,8<4[8:1],
,8/6h,{16},2,,,{8}1x,8,{4}7-4[8:1]/3<5[8:1],
7/3>1[8:1],6<8[8:1],6/8z4[4:1],{8}1,3-7[8:1],
,3/5,{16},5,,,{8}1/6-4[8:1],2,{4}3,
5/3h[4:1],8<5[8:1],3,{8}2,7/1>3[8:1],
,4,{16},5,,,{8}7-3-7[4:1],6/2,{4}1-5b[8:1],
1b-5-3[4:1],7-2[8:1],7-2-6b[4:1],{8}1,8-5[8:1],
,8,{16},1,,,{8}2x-5[8:1],4,{4}2/6,
{2}1-4b[8:1]/8-5b[8:1],{4}6-8[8:1],{8}2,1-5[8:1],
,6/1,{16},7,,,{8}8-3b[8:1]*-5[8:1],2/6,,,{4}1bh[4:1]/4-7[8:1],
4,4-1[8:1],{8}4/2,3-5[8:1],
,3,{16},7,,,{2}8x-4[8:1],
{4}2h[4:1],1>4[8:1],6,{8}7,8<6[8:1],
,5,{16},4,,,{8}2-6[8:1],3/7,{4}8w4b[8:1],
8,{8},,,,3,4/6,
{4}7h[16:3]/5h[16:3],{8}5,5/3,6,{16}6,5,{8}7,{16}3,4,
{8}2x,{16}8,1,{8}6,5/3,2,{16}4,2,4x,2,5,3,
{8}5xh[4:1],{16}2,1,8,7,6,5,{8}4/8x,{16}6,5,{8}7,{16}3,4,
2xh[16:3],,,4,{8}2,3/5,6x,7,{4}8/1x,
{8}3x,{16}3,4,{8}2,8,7/5x,{16}4,6,3,7,2,8,
{8}1x,{16}2,4,{8}3,3,{16}5x,6,3,2,6x,7,2,1,
{1}8x,
{4}3/5,3,{16}5h[8:1]/3h[8:1],,,3h[8:1]/5h[8:1],,,{8}5h[8:1]/3h[8:1],
,4/6,{4}6h[8:1]/4h[8:1],{16}4h[8:1]/6h[8:1],,,6h[8:1]/4h[8:1],,,{8}6/4,
{16}5,5,4,4,{8}7<5[8:1],{16}1,2,{8}7,3,4,2-6[8:1],
1/7-4[8:1],2,7,1,6-2[8:1],3-8[8:1],6,3,
{16}4,4,2,2,{4}3-5[8:1],{16}3/5,,,6,,,{8}7-4[8:1],
8/2-5[8:1],7,{4}2,{16}3,5,3,5,{8}4,5/3,
{4}3h[8:1]/5h[8:1],6h[8:1]/2h[8:1],{8}1/7,7/1,{4}8h,
{2}Ch[2:1],{8}4xh,5,7,8,
{4}1-5[8:1]/3-8[8:1],3/1-7<5-3[4:1],{16}4,,,8,,,{8}6,
7/3,{16}2,8,2,8,{8}2,3/5,{16}7,1,7,1,{8}7,
{4}5-8[8:1]/8<6[8:1],8>6[4:1],{16}5h[8:1],,,5h[8:1],,,{8}7-5[8:1],
5-1[8:1],1,{4}3,{16}6h[8:1],,,7h[8:1]/5h[8:1],,,{8}4/8,
{4}1-5[8:1]/3-8[8:1],3/1-7<5-3[4:1],{16}4,,,8,,,{8}6,
7/3,{16}2,8,2,8,{8}1,3/5,{16}7,1,7,1,{8}8,
{4}6-4[8:1]/3-7[8:1],6/3<2[4:1],{16}3,,,1,,,{8}5,
4/6,4/6,3/7,7/3,2/6,2/6,1/5,2/6,
{4}B4,{32}2/7,3,4,5,6,7,8,1,2,3,4,5,6,7,8,1,2,3,4,5,6,7,8,1,
{24}2,3,4,5,6,7,8,1,2,3,4,5,6,7,8,1,2,3,{4}7xh[4:1],
5b,{8}4/6,{16}2,5,3,5,,4,,,{8}6/2,
{16}8,2,8,2,1,8,7/3,6,5/1,2,3,4,5/1,8,7,6,
{4}5/3x,{32}1/7h,2,3,4,5,6,7,8,{16}1/5h,,,5h[16:3],,,{8}1,
{16}2,4,3,4,2,5,4,5,2,6,4,6,{8}4h,7/3,
{32}1,2/8,7/3,4/6,,,,,{8}4/6,{16}2,5,3,5,,4,,,{8}6/2,
{16}8,2,8,2,1,8,7/3,6,5/1,2,3,4,5/1,8,7,6,
{8}5/3,{16}2,4,{8}3,3,4/2,5,4/2,1,
6/8,{16}6,5,{8}7,7,{16}1,8,1,8,{4}1h[4:1],
{32},2/8,7/3,4/6,,,,,{8}3,{16}3,4,2,4,{8}2h[4:1],4,4,
{16}7,5,6,4,{8}7,{16}5,6,{8}5,4/7,{32}8x/1x,2x/7x,6/3,4/5,,,,,{4}3/6,
{32}8/2h,7,6,5,4,3,2,1,{8}8/4h,{16}3,4,{8}2,2,
{16}6,5,7,5,{8}6h[8:1],{16}4,5,{8}3,{16}4,2,4,3,{8}4h[8:1],
{4}2b,{8}4/6,{16}2,5,3,5,,4,,,{8}6/2,
{16}8,2,8,2,1,8,7/3,6,5/1,2,3,4,5/1,8,7,6,
{8}5/3,{16}2,4,{8}3,3,4/2,5,4/2,1,
6/8,{16}6,5,{8}7,7,{16}4b,6b,1b,7b,{4}3bh[4:5],
E
