&title=Nothing but Theory
&artist=Lapix
&first=-0.49
&des=N
&lv_6=14
&inote_6=(160)
{1},
{16}6bx/5bx,,74,,2,1,2,,4bx/3bx,,52,,7,8,7,,
{16}1,8,2,7,3,6,4,5,3^8[8:1],,4,,5w1b[8:1],,,,
{1}5bpp8[8:14]`Cf,,
{4}2pp5b[8:6],1,8,7,
{16}6,,6,,3,4,,6,5,,8,1,{4}7-5[8:1]/2-4[8:1],
{4}7-1[8:1]/2,7/3-7[8:1],3/6-4[8:1],1^4[8:1]/6,
{16}16,,7,,5,6,,4,5,,3,4,{4}2-8[8:1]*-4[8:1],
{4}2-6[8:1],7-1[8:1]/2,3-5[8:1]/7,36,
{8}78,16,1/2-5[8:1],3/8,6z2[16:4],,,,
{16}1hx[8:1],,,2hx[8:1]/8hx[8:1],,,7hx[16:3]/4x,,,5,,5,8hx[8:1],,,1hx[8:1]/7hx[8:1],
{16},,5x/2hx[8:3],,,,,,{24}3v8[8:1],4,5,6,7,8,,,,{8},
{16}7hx[8:1],,5,6,,6,4,5,3hx[8:1],,4,2,,2,5,3,
{16}7,8,6,,1,1,,28,,,4,5,2-6[8:1],4,3,5,
{16}2,,7,,1,2,3,4,8,7,6,5,3,,26,,
{4}1V75b[8:2]/7-3[8:1],,4b-1[8:1],4b/6b,
{16}2/8-2[8:1],,,3,8,,4,,3/5-8[8:1],,,2,5,,1,,
{16}7,,8,,6,2,4,2,4,3,5,3,6-3[8:1],4,7,5,
{16}6b,,,,2-6[8:1],1,3,8,2b,,,,87,,,,
{16}3b/4b,4b/3b,,6b-1[8:1]/5b-1b[8:1],,4b/7b,,5b/6b,,,B2/B3,,B6/B5,,,,
{16}1h[8:1],,3,,1h[8:1],,2,2,1h[8:1],,4,,1h[8:1],,{24}3,4,5,
{16}6/2-5[8:1],,,8,2,,6,,3,4,3,6,5,7,4,,
{16}8h[8:1],,6,,8h[8:1],,4,4,8h[8:1],,5^2[8:1],,8^5[8:1],,5,,
{16}8,,1,2,3,4,6,,8,7,6,5,3,,24,,
{16}1b-4-2[8:2]/5bV74[8:2],,,,,,,,,,2h[8:1],,1,,3h[8:1],,
{16}8,,5,5,7h[8:1],,4h[8:1],,3hx[8:1],,1h[8:1],,6hx[8:1],,5h[8:1],,
{16}7b,8,6,1,5,2,4,3,1b,2,8,3,7,4,6,5,
{16}7,3,7,3,6,1,6,1,7-3[8:1],8,7,8,7b,,,,
{24}1bx^6[8:1],2x,3x,{16}4x,,5V74[8:2],,,,3-8b[8:1],,2,,3,,,,
{8}5/7h[16:1],3,4/2h[16:1],6,5-1[8:1]*-2[8:1]/7,64,5,,
{24}8bx-4[8:1],7x,6x,{16}5x,,4>8[16:3],,,,6-2b[8:1],,7,,6,,,,
{8}1h[16:1]/3,5,6/8h[16:1],4,37,28,{16}1-5[8:1],1,1,,
{16}1b,,,,4h[8:1]/6h[8:1],,,,7h[8:1]/8h[8:1],,,1h[8:1]/6h[8:1],,,,,
{16}34,,34,,56,,56,,45,45,,3h[8:1]/6h[8:1],,,,,
{16}1h[8:1]/2h[8:1],,,,7h[8:1]/3h[8:1],,,,15,15,,2h[8:1]/4h[8:1],,,,,
{16}56,,57,,34,,42,,18,18,,27,,{32}1x/8x,2x/7x,3x/6x,4x/5x,,,
{1}3bx/6bxpp4[8:8],
{8}2,2,1,1,8-4[8:1],,A5`D6,,
{1}3bxqq8[8:8]/6bx,
{8}7,7,6,6,{16}2,5,3h[16:3],4h[16:3],,,,,
{8}2x-4b[8:1]/8bx-6[8:1],,,,7x-5b[8:1]/1bx-3[8:1],,,,
{8}4b-8b[8:1]/6,3,4/5b-1b[8:1],6,5b/3b,,2b/8b,,
{8}35,35,46,46,{16}7,5,6,4,5,3,4,2,
{4}1s5[8:4],,,1b,
{8}87,6,12,3,{16}5V31[16:3],4,,7,57,,,,
{8}6-8[8:1],8-4[8:1],6,1,{16}2-6b[8:1],5,,5,A2f,,,,
{8}87,5,21,4,{16}6-3[8:1],5,,3,63,,,,
{8}2-5[8:1],1-6[8:1],2,1,{16}4x,4,5,3,6b,,1b/8b,,
{24}7b^1[8:1],6,5,,,,3b-7[8:1],4,5,,,,7b-2b[8:1],6,5,,,,{4}4b,
{8}3-5[8:1],5-2[8:1],3,6,{16}7-4b[8:1],1,,1,A7f,,,,
{24}2b^8[8:1],3,4,,,,6b^8[8:1],5,4,,,,1bp5b[8:1],2,3,,,,{4}4b,
{8}6-8[8:1],2-4[8:1],6,2,{16}7x,7,5,6,,3,4,,
{16}1,1h[16:3],,,3,3h[16:3],,,4,6,5,7,8b,6,1,1,
{16}4,4h[16:3],,,3,3h[16:3],,,1,2,8,3,4b,2,5,4,
{16}6-2[8:1],5,7,,4x,4,,,3-8[8:1],4,2,,5x,5,,,
{16}3,7,5hx[8:1],,6,1,4hx[8:1],,3,8,5hx[8:1],,6b,2,4xh[8:1],,
{16}3v6[8:1],3,3,3,,,,,8z4[8:1],8,8,8,,,,,
{16}2x,5h[8:1],,3x,5h[8:1],,4x,5h[8:1],,{32}6x,7x,8x,1x,2x,3x,{4}4bx/6bx,
{16}2,1,3,8,4,5,3,6,2,1,3,8,4,5,3,6,
{4}2^5[8:1],8^5[8:1],{8}8-4b[8:1],,8b`Cf,,
{16}7,6,5,4,1,2,3,4,8,2,7,3,6v1[8:1],5,7,4,
{16}6,,2,,8,8,,1h[8:3],,,2,3,4,5,6,7,
{16}8/5x,4,3,2,1/7x,6,5,4,3/8x,7,6,5,4/1x,8,7,6,
{16}2x-5[8:1]/5,,1/7,,2/6,,7v6-4[16:3],7,,3,3,,1b,,,,
{16}8,7,1,6,2,5,3h[8:1],,1,2,8,3,7,4,6h[8:1],,
{24}8-4[8:1],,,7x,6x,5x,8-3[8:1],,,7x,6x,5x,8V25[16:3],,,6x,5x,4x,{8}8b,,
{16}1bx,8,7,6/8bx,1,2,3/1bx,8,7,6,4,5,3,4,2,,
{16}12,38,47,,78,16,25,,3v8b[8:1]/6v1b[8:1],,45,,3b/6b,,,,
{16}2,3,4,5,8,7,6,5,1,7,4,6,2q6[8:1],8,3,5,
{16}2,,7,,8,8,,6h[8:3],,,7,8,1,2,3,4,
{16}8x,5,6,3,4x,2,6,5,8x,4,6,3,4x,2,6,5,
{16}7x-4[8:1],,8,,17,,3V15[16:3],3,,1,1,,7b,,,,
{48}A7,D8,A8,D1,A1,D2,A2,D3,A3,D4,A4,D5,
{4}5bx-7[8:1]/6bx,5/4-8[8:1],4/3h[8:2],
{24}5q1[8:1],,,4x,3x,2x,5^8[8:1],,,4x,3x,2x,5^3[8:1],,,3x,2x,1x,{8}5,,
{16}2bx,4,3,8bx,6,7,1bx,3,2,5,4,6,3,7,2,,
{16}17,26,35,,82,73,64,,8-5b[8:1]/1-4b[8:1],,72,,8b/1b,,,,
{16}6bxh[8:1],,,,2h[16:1],1h[16:1],2h[16:1],1h[16:1],3bxh[8:1],,,,7h[16:1],8h[16:1],7h[16:1],8h[16:1],
{16}5hb[64:1],5,3,3,1,1,8,8,6hb[64:1],6,4,4,2,2,1,1,
{16}7hx[8:1],,,6hx[8:1]/5hx[8:1],,,3hx[16:3]/5x,,,4,,4,2hx[8:1],,,3hx[8:1]/4hx[8:1],
{16},,6hx[8:3]/4x,,,,,,{24}7p4[8:4],8,1,2,3,4,,,,,,,
{4},1bw5b[8:1],
