&title=夢色ハーモニー
&artist=CINDERELLA PROJECT/TVアニメ「THE IDOLM@STER CINDERELLA GIRLS」第2期EDテーマ
&first=1.13
&des=Ragna
&wholebpm=178
&demo_seek=72.4
&demo_len=22.3
&des_5=Ragna
&lv_5=12+
&inote_5=(178){8}
3h[4:1],,5,3h[4:1],,4h[4:1],,5^3[2:1],
,,,,,,5,2,
7h[4:1],,4,7h[4:1],,6h[4:1],,5^7[2:1],
,,,,,,1,8,
2h[4:1],,6,3h[4:1],,4h[4:1],,5^2[2:1],
,,8h[4:1],,,,7,1,
6h[4:1],,3,5h[4:1],,4h[8:3],,,
7^2[2:1],,,,,,,{24}3,4,5,{8}
6^3[16:11],,,,,,,,
2qq3[16:11],,,,,,,,
7pp6[16:11],,,,,,,,
4>6[16:11],,,,,,,5w1[16:9],
,,,,,,,,
7s3[16:11],,,,,,,,
4-1[8:5],,,,,,,,
8h[4:1],,1h[4:1],,7h[4:1],,2h[4:1],,
6q2[16:3],,,,3p7[16:3],,,,
6b<3[16:21]*q3[16:21],,,,,,,,
,,,,,,,,
4h[4:1]/5h[4:1],,,36,,27,,1pp2[16:5]/8qq7[16:5],
,,,,,,8,8,
2V48[4:1],,6,6h[8:3],,,1,1,
7V51[4:1],,3,3h[8:3],,,8,,
1h[4:1],,2h[4:1],,3h[4:1],,4h[4:1],,
5V31[16:3],,,,4V68[16:3],,,,
1,,7h[4:1],,4,4,5,5,
3qq8[16:7],,7,7h[8:5],,,,,
1,,6h[4:1],,3,3,8,8,
1pp5[16:7],,6,6h[8:5],,,,,
4,,8h[4:1],,1,1,6,6,
4h[4:1],,5,3h[4:1],,6,2,7,
1w5[16:6],,,,,,,,
6h[4:1]/5h[4:1],,,3h[4:1]/4h[4:1],,,5^8[8:1]/2,,
1,,3,3,1,1,4,4,
7qq2[16:7],,3,3h[8:5],,,,,
1,,4,4,8,8,2,2,
5qq7[16:7],,1,1h[8:5],,,,,
8,,2,2,6h[4:1],,3,5,
4h[4:1],,6,3h[4:1],,7,2,8,
1bw5[16:13]*w5[16:13],,,,,,,,
,,,,3h[4:1],,7h[4:1],,
1<2[16:14],,,5,5h[1:1],,,,
,,,,1h[4:1],,8,,
2h[4:1]/7h[4:1],,,6pp4[16:9]/3qq5[16:9],,,,,
,,,,6h[4:1],,2h[4:1],,
8>7[16:15],,,4,4h[1:1],,,,
,,,,8,3,7,2,
6^1[4:1],,1^4[4:1],,4^7[4:1],,1,1h[8:3],
,,8<4[4:1],,4>8[4:1],,8p1[8:3],,
4h[4:3],,,,,8<1[8:5],8,4h[1:1],
,,,,,,8p1[8:3],8,
4h[4:3],,,,,8,8,4h[4:1],
,5,36,2pp4[16:3]/7qq5[16:3],,,,,
3p6[4:1],,6^3[16:3],6,,8,,2h[8:3]/7h[8:3],
,,,1pp3[16:3]/8qq6[16:3],,,,,
4,5^8[8:1],4,5^2[8:1],,5<4[16:8],,5b,
,,,,,,2h[4:1]/6,,
1,,7h[4:1]/3,,8,,2h[4:1]/5,,
1p1[16:7]*q1[16:7],,,,,,,,
2h[4:1]/8h[4:1],,,7qq5[16:3]/3pp5[16:3],,,,,
4,5pp1[16:7],4,5,,,,,
2h[8:3],,8,8^5[8:1],,4qq2[16:3],,7h[8:3],
,,3,4qq2[16:3]/6pp8[16:3],,,,,
1,8^5[8:1],1,8^3[8:1],,8<1[16:8],,8b,
,,,,,,4,5qq4[16:3],
4,5<1[4:1],,1,,,4,5qq4[16:3],
4,5<4[16:7],,1,,,,,
1h[4:1],,7h[4:1],,5h[4:1],,3h[4:1],,
1p4[16:3],,,,8q5[16:3],,,,
3b>6[4:5]*p6[4:5],,,,,,,,
,,,,,,,,
5,4,5,2h[4:1]/7h[4:1],,,18,,
,,4b>5[2:5]/5b<4[2:5],,,,,,
{1},,E
