&title=舞萌断网了来开把湾岸吧 横羽线下行
&artist=screensaver
&first=0
&des=screensaver
&lv_5=5
&des_5=screensaver
&inote_5=
(127){4},{1},{4},{16},E7/C/E3,
,,,,,,,C/E7,
,,,,,,,E7,,,,,,,,,{8}4xh[#141.4564],
{16},,,,,E6/B6/B7,,,,,,,,,,,,,,,,E6/B6/E7/B7,
,,,
||这是一个标记~
,{1},{4},,,{16},,,E6/B6/E7/B7/B8,
{1},,{4},{16},E6/B6/E7/B7/B8/E8,
{1},,{8},2x<6[16:3],
{1},,{4},,,{16},,,7x>3[8:5],
{1},,,,,,,,,{4},(125){16},
,,,7x,
8x,{8}1x,{1},,{4},,{8},{16}7x,
8x,
{1}1x,
{16}8bx,,,,,,,,,,,,,7x,8x,1x,
,,,,,,,,{2}3x>7[4:5],
{1},,{4},,{8},B8/B7/B6/E6,
{1},,{4},,{16},,,E6/B6/E7/B7/B8,
,,,,,,,,,,,3x>7[16:17],
{1},,,{4},{16},,,E6/E7/B7/B8/E8/B6,
,8x,1x,2x,
{1},,,,,,{4},,,{16},8x,
,,{1}1x,
,,{16}1x,
8x,{8}7x,{1},,,{4},,{16},,,8bx,
,,,,,,,,,,,,,,,,,,8x,
1x,{4}2x,{8},,,,,,,,,,,,,,,,,7x>3[8:7],
{1},,,{4},{8},E6/B6/E7/B7/E8/B8/2x<1<8<7>8>1[8:5],
{1},,{4},,,{8},{16}1x,
2x,,,,,,,,,,,,,,,,,,,,1x,
,,{8}8x,{1},,,{8},2x<1<8<7>8[4:1],
{1},,{4},,,8x>2<1[16:7],
{1},,,,,{4},4xh[4:5],
{16},,,,,,,,,,,,,,,,,8bx/4xh[4:5],
,,,,,,,,,,,,,,,,,,,7x>3[16:19],
,4xh[8:81],
{1},,{4},,,{8},2x<7[8:7],
{1},,,{8},7x>3>8<7>8>1[8:7],
{1},,,{4},,,{16},,,4xh[16:169],
,,,,,,,,,7x>1<8>1[16:7],{1},,,,,,{16},8x,
1x,2x,{1},{4},{16},1x,
,8x,{8}7x,,,,,,,,,,,,,,,,,,8bx,
E
