&title=Äventyr
&artist=Grand Thaw
&first=0
&des=おにねこ
&wholebpm=132
&lv_5=13+
&inote_5=(132)
{1},
{8}
,,,,4h[8:4]/8,,1,,{24}7,3,6,{8},,{16}3,4,{8}2h[8:4],,5,6,{24}7,3,8,{8},,,5/1h[8:4],,4,,{24}6,2,5,{8},,{16}6,5,{8}7h[8:1],{16}8,7,1h[8:4],,6,,{24}5h[8:4],,,,,,,,,,,,
{24}
1,2,3h[24:10],,,,6,,,,,,4,3,4,,,,,,,{16}6,5,{24}7h[8:4],,,,,,3,,,4,,,5,6,5h[24:10],,,,7,,,8,,,
1,8,7h[24:10],,,,3,,,,,,2,3,4h[24:10],,,,5,,,6,,,7,6,5h[24:10],4,,,2,,,,,,
{16}4,5,{16}3/6,,7,5,6,5,
4-8[8:1]/7-4[8:1],,47,,,,,,5-1[8:1]/2-5[8:1],,52,,,,,,3-8[8:1]/7-4[8:1],,37,,,,,,1h[8:1],,2h[8:1],,3h[8:1],,4,,
2-4[8:1]/5-1[8:1],,25,,,,,,7-5[8:1]/4-8[8:1],,74,,,,,,2-5[8:1]/6-1[8:1],,26,,,,,,8h[8:1],,7h[8:1],,{24}6,5,6,,,,
{16}
7<4[8:1]/4>1[8:1],,83,,,,,,2>5[8:1]/5<8[8:1],,16,,,,,,7<4[8:1]/3>8[8:1],,84,,,,,,1h[8:1],,2h[8:1],,3h[8:1],,4,,
2-5[8:1]/5v8[8:1],,16,,,,,,7/3h[16:3],,,4h[16:3],,,5h[8:1],,{24}6V47[16:3],5,6,{16},,,,,,{24}1,2,3,4,,,2,3,4,5,,,
{16}5/6h[8:1],,7,,64,,3,,2h[8:1]/4,,1,,8-3[8:1]/3,,4,,,,5>2[8:1],,5,,,,{24}8,7,6,5,,,7,6,5,4,,,
{16}4/3h[8:1],,2,,35,,6,,7h[8:1]/5,,8,,1-6[8:1]/6,,5,,,,4<7[8:1],,4,,,,2,3,4,5,
6,4,7,3,8h[8:15],,,,,,,,{32}1,2,,,,,,,7,6,,,,,,,2,3,4,,,,,,,,,,,,,,6,5,4h[16:31],,,,,,,,,,,,,,
8,1,2,,,,,,,,,,,,,,8,7,,,,,,,2,3,,,,,,,7,6,5,,,,,,,,,,,,,,8-4[8:1],,,,4,,,,3,,,,2,,,,
{16}
1-7[16:1],,6,,15,,4h[8:1],,1-7[16:1],4,1,4,1,,5,,6-4[16:1],,3,,62,,1,1,6-4[16:1],,,,62,,,,
3-5[16:1],,6,,37,,8h[8:1],,3-5[16:1],8,3,8,3,,7,,61,,2h[8:1],,7,3,8,4,1-5[16:2],,,,,,,,
6h[8:1]/4,,7,,4/2h[8:1],,1,,3,4,1,8,4,5,8,7,6h[16:5]/1,,5,,{24}2,3,4,{16}6,6,5>2[8:1],,8b,,8b,,8,7,
1h[8:1]/6,,4,,5/7h[8:1],,8,,6,5,8,1,5,4,1,2,3h[16:2]/8,,4,3,5,4,6,5,7<4[8:1],,1b,,1b-5[8:1],,,,
1/2-6[8:1],,3,,21,,8h[8:1],,5,6,8,7,1<6[8:1],,2,,1>4[8:1]/3,,2,,1/5qq5[8:2],,{16}6,6,5,,8b,,8b-4[8:1],,2,2,
8>3[8:1],,1,,6/8<5[8:1],,7,,8/4-8[8:1],,3,3,4,,2,,7/1h[8:2],,,,4,2,5,3,6<2[8:1],,5,,4,,3,,
4p8[8:1]/8p4[8:1],,,,4<7[8:1]/8,,,,{24}8,1,2,{16}3h[16:2],,8,,7,8,6-1[8:1],,5,,4<7[16:2],,3,,
1,2,3,,84,,{24}8,7,6,
{16}5q1[8:1]/1q5[8:1],,,,1<6[8:1]/5,,,,{24}5,4,3,{16}2h[32:4],,5,,6,5,7h[8:1],,5,6,4,5,3h[8:1],,
{24}5<8[8:1],,,{16}4b,,3b/5,,{24}2,3,4,
{16}5>2[8:1]/1<6[8:1],,,,1q6[8:1]/5,,,,
{24}5,6,7,{16}8h[16:2],,4,,3,4,2-5[8:1],,1,,8>3[8:1],,7,,
5,6,7,,48,,{24}4,3,2,
{16}
1-5[8:1]/7-1[8:1],,6,,1/7-3[8:1],,,,4-8[8:1]/7,,,,54,,6,,
1-7[8:1]/7-3[8:1],,2,,7/1-5[8:1],,,,16,,7h[8:1],,4,6,2,8,
4<7[16:3]
,,,,,,,,2>6[8:2],,,,,,,,8qq4[16:7],,,,,,,,1,,2,,3,,4,,
5>2[16:3]/2,,,,,,,,7<3[8:2],,,,,,,,1>6[16:5],,,,,,,,8,,7,,{24}6,5,6,5,,,
{16}7/4b,,6b,5,4,3,4,,2/5b,,3b,4,5,7,5,,8/4b,,7b,5,4,2pp6[16:5],4,,5,,6,,7,,8,,
1/5b,,1bpp5[16:7]/5,,,,,,8,,,7,,,6h[24:3],,{24}5,4,3s7[16:51],{4},,,
,,,,,,,,,,{16},,,,,,1-5[8:4],,2,8,1h[8:8],,,,,,,,,,,,,,5,,5qq5[16:6],,,,,,,,,,,,6-2[8:4],,7,5,6h[8:8],,,,,,,
,,,,,,,2,,2q3[8:3],,,,,,,,7,,,,8-4[8:2],,7,1,8h[8:4],,,,,,,,4h[8:2],,,,7,,3,4,2h[8:3],,,,,,6,5,7h[8:2],,,,8-5[8:1],,,,
{8}1>4[8:2],,,{16}5,6,{8}7h[8:4],,,,8<5[8:2],,,{16}4,4,4,,,3,,,2,,
{8}1>8[4:8],,,,,,,,7,,,,4,
,,,1h[8:5],,,,{16}8,7,6,5,1,2,3,4,56,,,,45,,,,{32}3,4,,,{8},
{4},{32}4h[1024:1],5,,,,,,,{4}3,{32}3,4,5,,,,,,{16},,6,5,{4}6,{8}4,5,{16}3,4,{8}3,,,{32}5h[1024:1],4,,,,,,,{8},6,{32}6h[1024:1],5,4,,,,,,{16},,3,3,5,,6,6,4,,5h[8:4],,1h[16:6],,,,,,,,
{24}
15,2,3,,,,6,,,,,,7h[24:9]/2,3,4,,,,,,,{16}4,4,{24}
7,6,5,,,,2,,,2,,,1h[24:9]/8,7,6,,,,,,,,,,
1/6,2,3,7,,,8,,,,,,8/2h[24:9],7,6,,,,5,,,5,,,
2/6h[24:12],3,4,5,,,,,,,,,{16}5,,74,,8,3,7,4,
5b/6b,,3b/8b,,7/1h[8:1],,6,2,3b/4b,,1b/6b,,8h[8:1]/3,,4,7,5b/6b,,3b/8h[8:1],,2h[8:1],,
3,1,4qq5[16:4],,,,47,,,,
8b,,7b/3b>8[16:2],,46,,8,7,6b-2[32:3],,1b/5b,,26,,4,4,3b/5b,,6,5b/7b,,3,2b/4b,,{24}1-4[8:1]/5-8[8:1],26,37,,,,{16}5b/1b,,,,
7b<4[8:1]/3,,2,2,,1,1,,{24}1b<6[8:1],2,3,{16}4,,15,,4,3,
2b>5[8:1],,6,6,,7,7,,{24}7b-3[8:1],6,5,{16}4,,73,,
2,2,4-7[8:1],,,,1V35[8:2],,8,,7,,,,6h[8:2],,,,
(126){16}4s8[8:8],,3,,2,,1,,(114)8,,7,,6,,5,,4h[8:4],,,,,,,,
{4}5<4[4:5],,,,,,,,,,,,E
