&title=Singularity
&artist=technoplanet
&first=0.39
&des=-Black hole vs. Gravitational waves-
&lv_5=15
&inote_5=(200)
{1}
1s5[4:7],,7h[6:1],4h[6:1],1h[6:1]/7<2[4:7],,8h[6:1],3h[6:1],2h[6:1]/5pp1[4:7],,
{8}
3h[4:1],,8,4h[4:1],,6-8[8:1],,,2h[4:1],,1,3h[4:1],,4-7[8:1],,,
{8}
8h[4:1],,6,1h[4:1],,7<4[8:1],,,3h[4:1],,5,4,,5/6,,,
{16}
2,1,2,1,2,,7,8,7,8,7,,1,2,3,4V62[16:9],8h[16:3],,,,8h[4:1],,,,,8h[4:1],,,,,8h,,
{16}
1,7,1,7,1,,8,2,8,2,8,,4,5,4,5,
{8}
3,2h[16:1]/7h[16:1],2h[16:1]/7h[16:1],3/6,1h[16:1]/8h[16:1],2h[16:1]/7h[16:1],4b/5b,,
{16}
1/2h[4:1],,,,7,6,5,4h[16:5]/8v3[16:3],,,,,,,,,2,8,1,8,2V48[4:1],7,1,8,2,,,,7b,,,,
{16}
6V85[4:1]/1,,,,6/3,,,,3,2,1,8,4/7-3[8:1],6,5,4,7b/3,,,,2V41[4:1]/8V61[4:1],,,,2/8,,,,,,,,
{32}
8b,1,2,3,,,1b,2,3,4,,,2b,3,4,5<8[8:1],
{16}
,,,,2b,,,,3/7,,,,4,5,3,6,2,7,1,8,2,3,4,5,7,6,7,6,7h[8:1],,8,7,8,7,8,,
{16}
1-5[8:1],,2,,3/1bpp7[4:2]*V36[4:2],,,,,,,,,,,,,,,,
{16}
1/5h[4:1],,,,8,1,2,3/4-7[8:1],,,,,1b,,1,2,3h[4:1],,,,8h[16:1],,8h[16:1],,
{16}
1,7,1,7,2,6,3,5,4,,
{24}
8,7,6,3,4,5,1,8,7,2,3,4,5,6,7,8,1,2,3,4,5,
{16}
8bpp3[4:2],7b,6b,5b,4b/8b,,,,,,,,,,,,
{32}
1b,8,7,6,,,8b,7,6,5,,,7b,6,5,4V68[4:1],
{16}
,,3,,1,,,,3,,2,1,2,,3,4,3,5,4,6,3,7,2,7,
{24}
1s5[2:1]*v3[2:1],8,1,8,1,8,
{4}
1,,,2b>7[4:2],,,,
{8}
1h[8:1],8,4h[8:1],3-6[8:1],,2,1,,7b,8b<6[8:1],1b,
{16}
4,3,2,1,4,3,2pp4[16:3],1,8,7,
{8}
6h[8:1]/2,,,,,
{16}
3,4,2-4[8:1]/5<2[4:1],,,,2V86[4:1]/5,,,,5,,4,,,,3,,2b/7b-5[8:1],,,,
{16}
1b,,1-3[8:1],,,,7,,7,,6,,4/6,,,,5,5,5,5,4/6,,4,4,4,4,4,4,3-1[8:1]/5,,,,
{16}
6b>3[8:1],,6,,6,,,,8v3[8:1],,8,,8/5,,,,2-6[8:1]/4h[8:5],,,,2,,,,5,6,7,8,1/5,2/6,3/7,4/8,
{16}
1<6[8:1]/5,,1/5,,1/5,,,,5h[8:1]/4-7[16:1],,,4-1[16:1]/3h[8:1],,,,,
{32}
,,,,8,,,,7<4[8:1]/1,2,3h[16:3],,,,,,
{16}
7,,,,1,1,1,1,,,
{32}
1b/8b,2/7,3/6,,1b/8b,,,,
{16}
,,1h[8:1]/8-3[16:1],,,7h[8:1]/8-5[16:1],,,,,
{32}
,,,,1,,,,2/8,7,6h[16:3],,,,,,
{16}
8<5[16:3],1,2,3,8/4,3,2,1,
{16}
4/8>3[8:1],,4/8,,4/8,,,,5h[8:1]/7-4[16:1],,,8h[8:1]/7,,,2,,,,
{32}
8,7,6,,2,3,4,,,,,,
{16}
1/5,,1/5,,8,4,8,4,7b-3[8:1],,5b,,,,,,
{16}
4h[8:1]/2-5[16:1],,,1h[8:1]/2,,,7,,,,3,,4h,8h,1h,5h,4>1[8:1],,,,7,,6,,
{16}
5-8[8:1],,8-5[8:1],,5,,,,2-5[16:1],,,2/5-2[16:1],,,6,,
{32}
,,,,7,,,,1,8,1,8,,,,,
{16}
2/7,,2/7,,3,4h[16:3],6,5h[16:1],,,
{32}
2b/7b,3/6,4/5,,2b/7b,,,,
{16}
,,7-4[16:1],,,7/4-7[16:1],,,3,,
{32}
,,,,1h[8:1]/2,3,4,5,,,,,8h[8:1]/7h,6h,5h,4h,
{16}
,,1/2,,3,8,3,8,
{16}
2b,3,4,5,8,7,6,5,1,2,3,4,2,3,4,5,1,8,7,6,1,2,3,4,7,6,5,4,8,7,6,5,
{16}
3,4,3b,4,2b,1,2,1,5b,6,5,6b,8,7,8b-4[8:1],,,,8b,,
{32}
5b-2[8:1],6,7,8,,,,,1bw5[8:1]/5b,8,7,6,,,,,1b,,,,,,,,
{4}
2b/8b,,,2/7,
{32}
3,4,6h[32:1],,3,4,6h[32:1],,3,4,6h[32:1],,3,4,6h[32:1],,3,4,5h[32:1],,3,4,6h[32:1],,3,4,7h[32:1],,3,4,8h[32:1],,
{24}
3,4,5,3,4,5,3,4,5,3,4,5,3,4,5,3,4,5,3,4,5,3,4,5,
{24}
3,4,5,2,3,4,1,2,3,8,1,2,3,4,5,2,3,4,1,2,3,8,1,2,
{1}
3h[4:15]/7h[4:15],,,,1>5[4:5]*qq3[4:5],,
{64}
4<8[4:5],6qq2[4:5],,,,,,,,,,,,,,,
{4}
,,,,,,,
{12}
2,3,4h[12:4],5,,,7,6,5h[12:4],4,,,2,3,4h[12:4],1,,,7,6,5h[12:4],8,,,
{12}
2,3,4h[12:4],2,,,7,6,5h[12:4],7,,,2,3,4h[12:4],3,,,7,6,5h[12:4],6,,,
{12}
3,4,5h[12:4],4,,,6,5,4h[12:4],5,,,3,4,5,5,,,6,5,4,4,,,
{12}
3/6,4,5,3/6,4,5,3/6,4,5,3/6,4,5,3h[4:1]/6h[4:1],,,,,,
{16}
4,3,2,1,5,6,7,8,
{16}
1V36[8:3],,,,,,6V48[8:3],,,,,,8<1[16:7],7<1[16:6],6>1[16:5],5>1[16:4],,,,,
{16}
8,7,6,5,4>1[16:3],5,6,7,4/8,,,,8,7,6v1[16:3],5,,,2,3,4>1[16:3],5,,,8,7,6,5,
{16}
3,4,3,4,2,5,2,5,1,8,6,7,1,8,6,7,
{16}
2V48[8:3],,,,6V82[4:1],,8V25[8:3],,,,,,,,7h[4:1],,
{16}
,,,,,,8/3,7/4,6<3[4:1]/5,,,,6h[8:1],,,,5V73[4:1],,,,3V17[4:1],,1V73[4:1],,,,,,,,4,,
{16}
,,,,1/8,,,,2h[8:1]/5h[8:1],,,3h[8:1]/7h[8:1],,,4/5,,
{4}
4b/5-8[4:3],3,2,1,1>4[2:1],8,7,6,5v2[4:1],7,8p3[4:1],1,
{4}
2>5[8:1],8-4[8:1],8-6[8:1],1-5[8:1],
{8}
1b-3[8:1],,6,8-4[8:1],,8/3-1[8:1],2,3/5<7[8:1]*-1[8:1],,5,,2V46[4:1]/8,,6,7,8<2[8:3],
{4}
1h[4:2],,,
{16}
4,4,6,6,3,3,7,7,
{32}
2,2,8,8,2,2,8,8,1,1,1,1,1,1,1,1,1,1,1,1,1,1,1,1,
{32}
2b/8b,3b/7b,4b/6b,,,,,,,,,,8h[8:1]/1b,2,3,4,,,,,1h[8:1]/8b,7,6,5,4,,,,
{32}
7h[8:1]/8b,1,2,3,4,5,,,
{8}
8b/6b,1b/3b,,
{32}
1/8,,7,,6,,5,,4/1,2,3,4,5,6,7,8,
{8}
1h[4:3]/5h[4:3],1?>2[1.05##0.05]`5?<6[1.0375##0.05],1?>3[0.9##0.1]`5?<7[0.8875##0.1],1?>4[0.75##0.15]`5?<8[0.7375##0.15],1?>2[0.6##0.05]/5?<6[0.6##0.05],1?>3[0.45##0.1]/5?<7[0.45##0.1],1?>4[0.3##0.15]/5?<8[0.3##0.15],,
{4}
1b-6[8:1]/5b-2[8:1],1b-5[8:1]/5b-1[8:1],1bw5[8:1]*w5[8:1]/5b,,
{16}
1b-4[8:1],,7-3[8:1],6,5-2[8:1]/1,,7b,,5,,8,7,6bV82[4:1],,,,2/6,3,4b,5,6>3[8:1],,,,6bv1[8:1],,7b,,6b,,3,4,
{16}
5b-1[8:1],,3b,4,5/6>3[8:1],,8b,7,6,,2b,2h[16:3],
{24}
1,8,7,6,5,4,1b,2,3,4,5,6,1/7,6,5,4,3,2,
{12}
8b,8b,8b,
{48}
1b,8,,,2b,7,,,3b,6,,,
{16}
4b-7[8:1]/5,,3,4,2,,1<6[8:1],,2,,1,,2-7[8:1],,5-8[8:1],,
{8}
2-5[8:1],5-1[8:1],,6<1[8:1],,2,
{16}
2,3,4,5,
{12}
8,7,6,2,2,2,8,7,6,5/2,4/2,3/2,
{16}
1,8,2,7,3,4,1,8,2,7,5,6,1,8,2/7,,
{16}
2,4,2,6,4,6,1,3,1,7,5,7,2,8,2,8,
{24}
3,4,5,6,7,8,1/5,6,7,8,1,2,3/7,8,1,2,3,4,5/1,,,,,,
{48}
1b,2,,,8b,7,,,1b,2,,,
{24}
8b,6,1b,3,8b,6,
{24}
4,5,4,5,4,5,
{32}
3,6,3,6,3,6,3,6,
{24}
2,1,8,7,6,5,4/1,8,7,6,5,4,
{48}
2b,,3,,4,,5,,6b/1,,7/1,,8,,1,,2b/5,,3/5,,4,,5,,
{1}
6/2bs6[4:15],1-5[8:1],8-4[8:1],,3s7[4:15],6-2[8:1],1pp7[4:6],,,,E
