&title=Live Fast Die Young
&artist=anubasu-anubasu
&first=0.03
&des=Die or Live
&lv_5=13
&inote_5=(153)
{4},,,,,,{8}E4,E5,E6,,
1>6[2:1],,,,,,7,8-3[16:3],,,5,6p2[16:3],,2,1,8-2p4[2:1],,,,,,,
3,2^7[16:3],,,5,4^7[32:5],,8z4[16:7],1,2,,,,,,,
7,8^3[16:3],,,4,5-2[16:3],,1,8,7-3<6[8:3],,,,,,
2,1,8<2[16:5],,,1,8-5[16:3],,,4,3qq5[8:5],
2b,,,,,,6,7,{16}8bh[8:1],,,5xh[8:1],,,4xh[8:1],,,3xh[8:1],,7,7x-4[8:1],,,,1b-5[8:1],,,2,7-4
[32:3],,8,,7b,,,3b,5,,1b,,
2,8h[16:3],2h[4:1],,,,7h[16:3],1h[16:3],,,,,{8}6x-4[8:1]/2x,,
{16}8/6,,,8,3-7[32:5],,8,,3,8,,,8-6[8:1],,1,,
2/8,,,2,5-1[32:5],,2,,5,2,,,2-4[8:1],,1,,
8/2,,,8,5-1[32:5],,8,,5,8,,,8-2[8:1],,7,,
6/8,,,6,3,,6,,4h[16:3],6h[8:1],,,3^5[8:1]/7,,,,
8/3,,,8,6p2[32:5],,8,,6,8,,,8^6[8:1],,1,,
2/8,,,2,5-3[8:1],,2,,5,2,,,2,4,3,,
3h[8:1],,6,2h[8:1],,5,1h[8:1],,4,8h[8:1],,3,7x^2[8:1],,,,
7,,,,7-3[8:1],,3,,5w1[32:5],,,,,,,,
1xb,7xb,3xb,,
8b^6[8:1],,3,,8b^2[8:1],,,5,8b^6[8:1],,3,3,8b^2[8:1],,,5,8b^6[8:1],,5,,8b-4[8:1],,,3,8b,,,,
3b-5[8:1],,,8,3b-1[8:1],,8,,3b-5[8:1],,,8,3b-1[8:1],,6,6,3b-5[8:1],,,7,3b-1[8:1],,,7b,3b-8[8:1],,5b,,3,,,,
1b^7[8:1],,,4,1b^3[8:1],,6,,1b^7[8:1],4,,,1b^3[8:1],,6,6,1b^7[8:1],,,4,1b^3[8:1],,4,,1b-5[8:1],6,6,,1b,7b,7b,,
8b-4[86:1],,,3b-8[16:1],,,7b-4[16:1],,,1b-5[16:1],,,{8}6b<5[2:1],,3b,,,,
,,6x-4[8:1],,3bqq6[2:3],,,,,,,,,,,,,,,,,,,,,,,,,,,,D4,D5,D6,,
E1,,27,,4h[8:1],,4h[8:1],,7>2[4:1]/5h[8:1],,5h[8:1],,6qq5[32:9],,,,
8-6[8:1],,5-3[8:1],,7h[4:1],,3,,2h[8:1]/6^3[4:1],,2h[8:1],,1V36[32:9],,,,
E8,,61,,4h[8:1],,4h[8:1],,1<6[4:1]/3h[8:1],,3h[8:1],,2qq1[32:9],,,,
4-6[8:1],,1-3[8:1],,7h[8:1],,7h[8:1],,8h[8:1]/3^6[4:1],,8h[8:1],,1p4[32:7],,,,
{16}3,,3,,24,,5,4,6,4,6,,57,,3,5,2,5,2,,34,,6,5,6,3,4,,25,,3,3,
8,,8,,17,,2,2,8,3,8,3,7,7,{24}1,2,3,{16}6h[8:1],,3,6h[8:1],,4,7,4,7,,56,,3,4,,3,
{16}6,,6,,75,,4,5,3,5,3,,42,,6,4,7,4,7,,65,,3,4,3,6,5,,74,,6,6,
1,,1,,82,,7,7,1,6,1,6,2,2,{24}5<4[24:11],3>4[12:5],5,{4}3,,,C,
{16}34,,8,,56,,4,4,1,,3,,56,,7,7,8,,5,,32,,1,1,4,,2,,78,,5,,
12,,3,,56,,2,2,4,,8,,12,,7,7,5,,1,,87,,4,4,2,,6,,81,,3,,
7x,,57,,74,,37,,27,,17,,78,,6,6,2x,,21,,28,,27,,26,,52,,24,,3,3,
1x,4,8,5,7,6,7,8,5,1,4,2,{24}5>6[16:5],3,5,3,5,3,
{8},,,{16}3h[16:1],,,7h[16:1],,,1b/5b,,,,
2b-5[8:1],,4,,2b-8[8:1],,6,6,2b,,7,,7bV58[16:3],,1,1,7b,,2,,2b-6[8:1],,8,8,2b-4[8:1],,7-1[8:1],,2b,,7,,
5b-1[8:1],,8,,5b,,6,6,8b^3[8:1],,4,,8b,,7,7,4b-6[32:3],,6-3[8:1],,4b,,8,8,7b,,,5b/2,5b/2,,3b/4,,
6b^1[8:1],,2,,6b-4[8:1],,3,3,6b,,1,,1b^4[8:1],,6,6,1b-6[8:1],,5,,1b,,7,7,5b-2[8:1],,8-4[8:1],,5b,,8,,
2b^7[8:1],,4,,2b,,6,6,5b-8[8:1],,8,,5b,,2,2b,,,1b/4,,6b/7>5[4:1],,3,3b,,,,,1,,1,,
7b-4[8:1],,5,,7b^1[8:1
],,3,3,7b,,2,,2b^5-1[16:3],,8,8,2b,,7,,7b-3[8:1],,1,1,7b^4[8:1],,2-8[8:1],,7b,,2,,
4bq8[8:1],,1,,4b,,3,3,1b-6[8:1],,5,,1b,,2,2,5b^3[32:3],,3-7[8:1],,5b,,1,1,2b,,8,,4b/6,4b/6,4b/6,,
3b-8[8:1],,7,,3b^5[8:1],,6,6,3b,,8,,8b^6[8:1],,3,3,8b-4[8:1],,5,,8b,,1,1,5b-1[8:1],,2-4[8:1],,5b,,2b,,
8b,,65,,3b,,5b/2,5b/2,,,3b/4,,7b/6,,2b/1<2[8:3],,8b,,,,,,,,,,8,,2x/6x,,,,
3xh[16:3]/4x,,,1,4h[16:3],,7,7,3h[16:3],8,8,,4h[16:3],,6,,3h[16:3],,1,1,4h[16:3],,,7,3h[16:3],,8,,4,4,6,,
3xh[16:3]/8x,,,,4h[16:3]/6,,8,8,3h[16:3],7,7,,4h[16:3],,1,,3bh[16:3],,,6,4b-1[16:1],,,7b-4[16:1],,,2b,,3,3,5,,
6xh[16:3]/4x,,,8,5h[16:3],,2,2,6h[16:3],1,1,,5h[16:3],,3,,6xh[16:3],,8,8,5h[16:3],,,1,6h[16:3],,,2,2,,4x/3x,,
7xh[16:3]/5x,,,,3b-6[16:1],,,8b-4[16:1],,,2b,,1b,1b,6b,6b,{8}8xb>6[4:1],,7,8h[8:3],,,6s2[1:3],5z1[8:23],,
