&title=irony
&artist=ClariS
&first=0
&des=V_Y_♡
&lv_6=13
&inote_5=
&inote_6=(134){1},
{8}45,,3/6pp5[4:4],,,,,,,,,,,,4,,4,,3qq4[1:1]/5,,,,,,,,,,,,5<8[8:1]*q1[8:1],,,,2h[4:1],,4,,6h[4:1],,7,,3h[4:1],,4,,7h[4:1],5,4,3q5[4:1],,5,6,7h[4:1],,4,3,2-5[8:1],,6-2[8:1],,2,1<5[8:1]*p4[8:1],,1,,3b-1[8:1],2,4-8[8:1],5,3-1[8:1],2,5-7[8:1],6,4-8[8:1],3,5-7[8:1],6,3-1[8:1],2,4,5,16,7,38,2,16,1-5[8:1]/6,,7-4[8:1],,3-8[8:1],,4,5<8[8:1]*>2[8:1],,5b,,7/3h[4:1],,4,,6,5-3[8:1],,7h[4:1],,2-5[8:1],,8h[4:1],,5,47,3,6h[4:1]/2,,5-3[8:1],4,,7-5[8:1],6,1-3[8:1],,4-8[8:1],5,3h[4:1],,1,48,7,6h[4:1]/2,,5,,3,4-6[8:1],,2h[4:1],,7-4[8:1],,1h[4:1],,4,52,6,3h[4:1]/7,,4-6[8:1],5,,2-4[8:1],3,8-6[8:1],,5-1[8:1],4,6h[4:1],,8,51,2,3h[8:1]/7,4,25,3,3h[8:1]/7,4,25,3,3/7<4[8:1],,8,,1-4[8:1]/5,,8-5[8:1],,3b-5[8:1]/8b,,6,7,5-3[8:1]/8-5[8:1],,5,,5/3-5[8:1],,6,7,8/5-3[8:1],5,7,6,5-1[8:1],,2,3,4h[4:1],,8,5/7-5[8:1],,3-1[8:1],2,4-8[8:1],,1,2,3,48,,56,47,,2-5[8:1]/5,,8z4[4:1],,4,,2,2-6[8:1],,2b/8b,7,7b/5b-3[8:1],,8,8-4[8:1],,8/3-1[8:1],,3/5-7[8:1],,5/1-7[8:1],2,3,4-8[8:1],4,5,6,7<4[8:1],4,7,3,7-3[8:1],2,7,2,7<4[8:1],3,7-3[8:1],2,7>2[8:1]*<4[8:1],,7,,5b/2b-5[8:1],1,52,6,1-5[8:1]/5,8,15,6-8[8:1],,4-2[8:1]/6,3,5/4qq5[4:1],,5,6,7,8<5[8:2],,5p4[4:1],4,,3>1[8:1],,5<7[8:1]/3,,3h[4:1]/5,,5,4q1[8:1]*<8[8:1],,4b,,4b-6[8:1]/2b,,14,1-5[8:1],,1/6-8[8:1],,6/4-2[8:1],,4/8-2[8:1],7,6,5-1[8:1],5,4,3,2>5[8:1],5,2,6,2-6[8:1],7,2,7,2>5[8:1],6,2-6[8:1],7,2,,8-4[8:1],,8/5h[4:1],,4,4-8[8:1],,43,,2q5[4:1],,4,6,8V64[4:1],,5,3,1V35[4:1],,4,6,8-4[8:1],,81,2,3>8[8:1],,5<8[8:1],,4h[8:2],,7,
{16}5-1[8:1],6,5,6,
{16}5b<4[4:5],,,,
{2},,,
{8},,
3h[8:1]/7,4,25,3,37,6-1[8:1]/4-6[8:1],,46,,8/5v8[8:1]*v2[8:1],,5,,
{16}7,3,6pp5[16:16],4qq5[16:15],5,,4b,,
