&title=Altar of Artemis
&artist=Laur/Call of Artemis
&first=0
&des=JAZZANA
&lv_5=14
&inote_5=
(180)
{1},
{16}2,,3,,
4>1[4:1],,5,,
,,,,
,,7,8,
{16}7,,1-5[8:1],,
,,17,,
,,{24}6,4,6,
4,,,,,,
{16}7,,6,,
5<8[4:1],,4,,
,,,,
,,2,1,
{16}2,,8-4[8:1],,
,,82,,
,,{24}3,5,3,
5,,,,,,
{16}3,,6,,
2q3[4:1],,7,,
,,,,
,,7,2,
{16}7,,1-5[8:1],,
,,81,,
,,{24}7,4,6,
3,,,,,,
{16}2,,7,,
1s5[4:1],,8,,
,,,,
,,3,4,
{16}25,,6,,
78,,1,,
2,6,2,6,
{24}3,5,3,5,,,
{16}4b,3,2,1,
8p3[4:1],,7b<4[8:1],,
,,,,
,,2,5,
{16}2,,6-1[8:1]/1-5[8:1],,
,,61,,
,,{24}84,73,62,
{16}51,,,,
{16}1b,2,3,4,
5q2[4:1],,6b<1[8:1],,
,,,,
,,3,7,
{16}3,,8-4[8:1]/2-4[8:1],,
,,8<5[8:1]/2,,
,,{24}E5,E4,E3,
{16}E2f,,,,
{16}6b,4,7,3,
8q6[4:1],,2bv4[8:1],,
,,,,
,,3,6,
{16}3,,7-4[8:1]/4,,
,,7/1>4[8:1],,
,,{24}1/5,6,7,
8,,,,,,
{16}7,,7,,
72,,2,,
25,,5,,
5,,3,4,
{16}3,4,1,8,
1,8,{24}1x,2,3,
8x,7,6,2x,3,4,
7x,6,5,{16}3h[8:3],,
{16},,,,
7-3[8:1],,,,
27,,,,
2<7[8:1],,,,
{16}2/6>3[8:1],,,,
6/8-3[8:1],,,,
4-7[8:1],,,,
1-5[8:1],,2,,
{16}1/3,,,,
47,,,,
3-5[8:1],1,2,8,
3,,7,,
{16}46,,,,
3V14[4:1]/5,,,,
6-4[8:1]/3,,,,
6-1[8:1],,,,
{16}3-1[8:1]/6,,,,
3/8-6[8:1],,,,
8/2,,,,
4-2[8:1]/5-7[8:1],,,,
{16}45,,,,
3,4,3,5,
4,5,2,6,
2,,7,4,
{16}7qq5[4:1],,,,
4,,3,,
2,,1,,
8pp2[4:1]/4,,,,
{16}5,,6,,
7V15[4:1],,,,
3x,,,,
4V61[4:1],,3,,
{16}2,,,,
3x,,,,
6x,6,2x,2,
7xh[4:1],,,,
{16}2b-5[8:1],,,,
2/7b,,6,,
7b-4[8:1]/3b-8[8:1],,,,
73,,,,
{16}15,26,37,48,
1/5h[8:1],,,,
7b-4[8:1],,,,
7/3b,,2,,
{16}3b-6[8:1]/7b-2[8:1],,,,
37,,,,
51,48,37,62,
5/1h[8:1],,,,
{16}17,,17,,
26,,3x,5,
4,,6x/3x,,
5,4,5,4,
{16}6,4,6,4,
7x,,7x,,
2,8,2,8,
1,7,1,7,
{16}2,6,2,6,
3,5,3,5,
3,4,5,6,
3,4,5,6,
{16}3xh[2:1]/7x,,,,
,,,,
E8,,E7,,
E6,,E4,,
{16}E3,,E2,,
8,,7,,
6,,4,,
3,,2,,
{16}1h[2:1],,,,
,,,,
7-4[8:1],,8,,
7,,2-5[8:1],,
{16}1,,2,,
8-5[8:1],,2,,
8,,1-4[8:1],,
7,,1,,
{16}6,,36,,
4v1[8:1],5,4q8[8:1],5,
4,,,,
2,,72,,
{16}1v3[8:1],8,1p4[8:1],8,
1,,,,
2-6[32:3],,4xz8[8:3]/5xs1[8:3],,
2,,,,
{2},
{16}E3h[8:1],,,,
7,7,3,3,
{16}6b-1[8:1],,,,
6b/2b-5[8:1],,,,
{24}1x,8,7,6,,,
{16}3,3,5,5,
{16}2,,3,4,
3,,2,1,
,2,8,,
2,,2x,3,
{16}4b/8b-6[8:1],,,,
8b-4[8:1],,,,
{24}4x,3,2,1,,,
{16}5,2,,6,
{16}3,,7x,4,
6v3-8[8:2]*v3-1[8:2],3,7,4,
6b,,,,
,,,,
{16}2b-6[8:1],,,,
2b,,,,
7b,,7b,,
1b,2,3,4,
{16}57,,6,5,
6,,7,8,
,7,1,,
1x,2,3,4,
{16}5b-1[8:1]/6b-8[8:1],,,,
6b/5b,,,,
{24}7x,6,5,4,,,
{16}1x,2,3,4,
{24}1x,2x,3x,4x,,,
{32}1,,,,8,,,,
{16}1,8,{24}1x,2,3,
4,7x,6,5,4,,
{16}2xh[4:3],,,,
,,,,
,,,,
6h[4:3],,,,
{16},,,,
,,,,
2>2[2:1],,,,
,,,,
{16},,,,
Ch[8:3],,,,
,,,,
2,,3,,
{16}7/B4f,,,,
7,,3,,
6,4,5,,
B3f/E4f,,,,
{16}7,1,8,,
2h[4:1],,,,
8bV24V68[4:2],,,,
,,,,
{16},,,,
Cf,,,,
,,,,
2-8[8:1],,5,,
{16}2-4[8:1]/4-6[8:1],,,,
2/4-1[8:1],,,,
7,,,,
7-3[8:1],,1,,
{16}7-5[8:1]/8-4[8:1],,,,
78,,,,
7-1[8:1],,,,
3-7[8:1]/7,,,,
{16}6>3[8:1]/3,,,,
6,,,,
2,6,3,7,
2-6[8:1],,6-2[8:1],,
{16}2b,,,,
8-6[8:1],,,,
8-4[8:1]/3-1[8:1],,,,
8b/3b,,,,
{16}7-4[8:1],,,,
7/2-5[8:1],,,,
2b/6b,,7,,
83,,2,,
{16}17,,2,,
8-4[8:1]/3-1[8:1],,,,
8/3-6[8:1],,,,
3,,,,
{16}7,,6,,
52,,3,,
46,,3,,
5-1[8:1]/2-4[8:1],,,,
{16}5/2-6[8:1],,,,
2,,,,
7,,2,,
81,,7,,
{16}65,,4,,
36,,27,,
1v3[8:1]/8v6[8:1],,27,,
18,,,,
{16}5,,4,,
35,,6,,
73,,2,,
{24}7,6,5,4h[8:3],,,
{24}3,2,1,8h[8:1],,,
,B4,C,B8,,,
{16}2h[2:1],,,,
E8,,E7,,
{16}E6,,,,
6h[2:1],,,,
E2,,E3,,
E4,,,,
{16}Ch[8:1],,,,
E6/E4,,E7/E3,,
E8/E2,,,,
4,5,3,6,
{16}2,7,1,8,
{24}1w5[8:1],,,,,,
1b,,,,,,
{16}3,7,4,6,
{16}2<7[8:1],,,,
7x/2V48[4:1],6,5,,
5x-7[8:1]/2,,,,
5-1[8:1]*-3[8:1],,,,
{16}5,,,,
2-6[8:1]/7,,6-2[8:1]/3,,
27,,8,,
{32}7,6,5,4,3,2,1,8,
{32}7,,,,{16},,
6-1[8:1]/2-4[8:1],,5,,
26,,,,
3,5,2,6,
{16}1,7,2,6,
5-7[8:1]/3-5[8:1],,,,
3/5-1[8:1],,,,
8-4[8:1],,7,,
{16}68,,7,,
35,,2,,
46,,8,,
73,,26,,
{16}73,26,15,84,
7,6,5,4,
3x/7x,,18,,
6,2,5,3,
{16}7>2[8:1],,,,
2x/7-5[8:1],3,4,,
7/4x-8[8:1],,,,
43,,2,,
{16}1x/7-5[8:1],2,3,,
1x/7-3[8:1],2,3-7[8:1],,
71,,,,
{32}2,3,4,5,6,7,8,1,
{32}2,,,,,,,,
{16}2bv5[8:1]/8bv5[8:1],,,,
2b/8b,,,,
4,6,3,7,
{16}2,8,1,7,
2b/6b,,,,
{24}6h[8:1]/2b,3,4,5,,,
3h[8:1]/7b,6,5,4,,,
{16}1b,8,3,6,
1b,8,3,6,
2b,7,4,5,
{24}2b,3,4,6b,7,8,
{24}2b,1,2b,1,2b,1,
{32}8x/3x,7,6,5,,,,,
{16}3,,3>6[4:1],,
7,,Cf,,
{16},,,,
,,6,4,
5,,B2/B3/E3,,
,,5,,
{16},,43,,
43,,,,
6,,6<3[4:1],,
2,,Cf,,
{16},,,,
,,3,5,
4,,B7/B6/E7,,
,,4,,
{16},,56,,
56,,,,
3,5,3,7,
3,,4/6-4[8:1],,
{16}4/6,,,,
,,2,4,
2,5,2,6,
2-4[8:1],,7xV51[4:1],,
{16}2x,,7x,,
3,,2,,
27,,36,,
45,,3,6,
{16}3,6,{24}2,7,2,
7,2,7,2b,,,
{16}E7,,E3,,
E6,,E4,,
{16}E8,,E2,,
C,
E
