&title=我ら!ゴミ分別団
&artist=かてらざわ
&first=0.505
&des=南うらい
&lv_5=13
&inote_5=(166)
{2}1h[2:1],7h[2:1],
{2}5h[2:1],3-7[8:1],
{8}1-5[8:1],1h[8:3],,,7-3[8:1],7h[8:3],,,
{8}4-8[8:1],4h[8:3],,,1-6[8:1]*-3[8:1],1h[8:1],,,
{4}4qq1[2:1]/7,8,7,6,
{4}5pp4[2:1],4,3,2-6[4:1],
{4}7-3b[4:1],,,2-5[8:1]/7-4b[8:1],
{4}2x-8[8:1]/7x-1b[8:1],2x-6[8:1]/7x-3b[8:1],2x/7x,1pp5[8:3]*qq5[8:3],
{16},,,,,,,,4,4,6,,5/7<8[8:3],,8,,
{16}5h[4:1],,,,,,,,5,5,6,6,4w8[8:1],,,,
{4}4,3/5w1[8:1],5,3/7qq4[8:7],
{8}4,,2,,8q4[8:1],,,,
{16}3/5-7[8:1],,2,,1,,,,2,2,8,1,7,7,1,,
{4}6<2[4:1],2v4[4:1],4,2,
{8}7/8,6,5,4,1/2,3,4,5,
{8}7/8h[8:5],,,,,6,4/5h[4:9],3,
{16}A6/E6/B6,,,,E8/D8/A7/B7,,,,B2/E3/B3/A3,,,A6/E7/B6,,,E2/B2/E3/A2,,
{16},,A6/E6/B6,,B2/E3/B3/A3,,,,E2/A1/D2/A2,,,A6/E7/B6,,,E8/D8/A7/B7,,
{8},,,,,,,7b,
{4},,,2b,
{16}2xb/3xb,,,,6xb/7xb,,,,2xb/3xb,,,6xb/7xb,,,6xb/7xb-5[8:1],,
{16},,6xb,,7xb,,,,6xb/7xb,,,6xb/7xb,,,2xb/3xb,,
{8},,,,,,,7^2[8:3]/2v4[8:3],
{4},,,3-8[8:1]/7-4[8:1],
{4}3/7,2-5[8:1]/6-1[8:1],2/6,3/7-4[8:1],
{8}7/2-6[8:1],1,2/8-4[8:1],1,3/8,,2^5[8:1]/6^1[8:1],,
{8}2/6,,4^7[8:1]/8,,2/4^1[8:1],3,6/4-8[8:1],5,
{8}4/2-4[8:1],1,2/6-8[8:1],7,6/1-5[8:1],,1^4[8:1]*^6[8:1],,
{8}1x,,2b-4[8:1]/8b,,2/5-1[8:1],6,5/3-7[8:1],4,
{8}3/6-1[8:1],5,6/4-7[8:1]*-1[8:1],3,4,,2v5[8:1]/8v5[8:1],,
{8}2/8,,7/1-5[8:1],2-4[8:1],1-7[8:1],2-6[8:1],1^4[8:1],2,
{4}1,8^2-6b[8:3],4-6b[8:1],,
{1}1xqq4[2:3]/7xpp4[2:3],,
{2}5-7[8:1]*-2[8:1],4-2[8:1]*-7[8:1],
{4}5-7[8:1]/4qq5[2:1],,,8,
{4}7h[8:15]/3h[8:1],3h[8:1],4h[8:1],5h[8:1],
{4}6h[8:1],6h[8:1],8h[8:1],1h[8:1],
{8}2/8,3,4,5,1/7,6,5,4,
{16}2h[4:1]/8h[4:1],,,,,,,,,,1,7,2^5[8:1],8,1,,
{16}2xb^7[8:1],,,,2xb,,,,4xb-7[4:1],,,4xb,,,5xb,,
{16},,5xb/8xb,,2xb/3xb,,,,4xb-7[4:1],,,4xb,,,3xb,,
{8},,,,,,,2b,
{4},,3^8[8:1]/5v3[8:1],,
{16}2xb/3xb,,,,6xb/7xb,,,,4xb-7[4:1],,,4xbh[16:3],,,,,
{8},1xb/8xb,1xb/8xbq5b[4:1]*^3-5b[4:1],,,,,7xb,
{2},2/4-7[16:1],
{4},,,2^5[8:1]/6^1[8:1],
{4}2x/6x,2p5[8:1]/6p1[8:1],2/6,4/8-4[8:1],
{8}8/2-5[8:1],1,2/7-3[8:1],8,3^6[8:1]/7^2[8:1],,3x/7xp4[8:3],,
{8}2-5[8:1]/7,,2-8[8:1],,2/7-3[8:1],6,7/4-1[8:1],5,
{8}4/7-4[8:1],8,2q5[8:3]/7,3,2/5,,8b-6[8:1]*-5[8:1],,
{8}8-2[8:1]*-3[8:1],,8-4[8:1],,8/3^8[8:1],2,3/5-1[8:1],6,
{8}2^5[8:1]*^7[8:1],3,2,,4b/8b,,4^1[8:1]/7^4[8:1],,
{4}7/4,2^5[8:1]/5^8[8:1],2/5,1^6[16:3],
{16}1/5,4,3,2,1,8,7,6,5/1b,,,,3pp8[8:3]/5qq8[8:3],,,,
{8},,,,2,4,3,2/4,
{16}2,,4,,3,,2/4,,2,4,3,4,1>5[4:1],,,,
{4}7,1<5[4:1],3,1s5[8:3],
{8}5,6,7,8,1h[2:1],,,,
{16}3,,,,2/8,,,,1/7,,5,,3,4,3,,
{8}2h[8:1],3h[8:1],4h[8:1],5h[8:1],6h[8:1],7h[8:1],1-6[8:1],,
{8}1/8,,1-3[8:1]/8-3[8:1],,1/8,,1/8,7,
{1}5h[8:23]/6h[8:5],
{16}A6/E6/B6,,,,E8/D8/A7/B7,,,,B2/E3/B3/A3,,,A6/E7/B6,,,E2/B2/E3/A2,,
{16},,A6/E6/B6,,B2/E3/B3/A3,,,,E2/A1/D2/A2,,,7xb,,,E5f,,
{8},,,,,,,2b,
{4},,7^2[8:1]/2v4[8:1],,
{16}5xh[8:15]/7xb,,,,E5f,,,,,,,7xb,,,E5f,,
{16},,7xb,,E5f,,,,7xb,,,7xb,,,E5f,,
{1},,
{2}4-7[8:3],5-2[8:3],
{2}4-1[8:3],5-8[8:3],
{2}4-7[8:3],5-2[8:3],
{2}4-1[8:3],5-8[8:1],
{4}1/2,3/4,2/5,5/6,
{4}4/7,1/8,2/6,3/4,
{8}5,6,7,8,1,2,3,4,
{24}3x/6x,,,,,,2x/7x,,,,,,1x,8,1,8,1,8,1xb-5[8:1],,,,,,
{8}1xw5b[8:1],,1x,,3/7-3[8:1],,7/2-5[8:1],1,
{8}2/6-1[8:1],7,4-8[8:1]/6,5,4,,1^4[8:1]*^6[8:1],,
{8}1s5[8:1]*z5[8:1],,1,,3/7,3/7,2/6,,
{8}1-5[8:1],5^3-8[4:1],1,6,7-4[8:1]*-2[8:1],,7p4[8:3],,
{8}3-8[8:1],,3-6[8:1],,1-5[8:1]/3x,8,1/7-4[8:1],6,
{8}7/3-8[8:1],2,3/5-1[8:1],4,5,,2/8^5[8:1],4/6,
{8}8^3[8:1]/2,1,6/8-5[8:1],7,4/8-3[8:1],2,4/8<1[4:5],6,
{1}8,
{4},,1v3^1v3^1v3^1v3^1v3^1v3^1v3^1v3^1v3[4:17],7^5v7^5v7^5v7^5v7^5v7^5v7^5v7^5v7b[1:4],
{1},,,,,
