&title=輪廻玲々
&artist=suzu
&first=0.04
&des=JobsDB
&lv_5=14
&des_5=JobsDB
&inote_5=
(188){4},{8},,,,,,7/2,
{16}1,8,{8}1,7/2,3/6,5h[4:1]/4h[4:1],{32},,,,,,,,8b/1b-3-5-7-1[4:13],
7/2,6/3,5/4,{1},,,{4},,,{16}8,
7,
{8}8h[1:1],,,B1,,,{4}B7,
{8}5h[1:1],,,B6,,,{4}B4,
{8}3h[1:1],,,B4,,,{4}B2,
{16}8,7,6,5,1,2,3,4,8,7,6,5,4,3,2,1,
{4}4/8<5[8:1],{8}1,2>5[8:1],,7,{4}8-4[8:1],
8/1>4[8:1],{8}8,7<4[8:1],,2,{4}1-5[8:1],
1/7-3[8:1],{8}1,2-5[8:1],,1,{4}8-4[8:1],
{8}8/2h[4:1],,,3h[4:1]/5h[4:1],,,{4}4h[8:1]/6h[8:1],
{16}5/7,B7,C,B3,{8}A3,2v5[8:1],,,8,7,
6-3[8:1],6,2-7[8:1],2,8<5[8:1],8,1,1,
{16}1,8,2,7,3,6,4,5,3,4,2,5,1,6,8,7,
{32}1,2,3,4,5,6,7,8,1,2,3,4,5,6,7,8,1,2,3,4,5,6,7,8,1,2,3,4,5,6,7,8,
{8}1bxh[2:1]/5bxh[2:1],,,,,,,3h[8:5]/4h[8:5],
,,,,,,,3h[1:1]/2h[8:5],
,,,,,,,1b,
,,,,,,,,{4}5h[2:1],
6,{8}6,,,6h[8:1]/5h[8:1],
,7h[8:1]/6h[8:1],,8h[8:1]/7h[8:1],,6/7,,7h[8:5]/5h[1:1],
,,,,,,,8b,
,,,,,,,,{4}4h[4:3],
6,8,{8}2,2h[8:7],
,,{4}4,6,{8}8,8h[8:7],
,,{4}2,4,{8}6,6h[8:11],
,,{4}8,{8}2,2,,,{2}4h[4:1],
{8}7/5,7/5,,5h[4:1]/3h[4:1],
,,,2/4,,5/7,,8b/1b,
,2h[8:1],3h[8:1],4h[8:1],5h[8:1],6h[8:1],7h[8:1],8h[8:1],
{16}1,2,3,4,2,3,4,5,3,4,5,6,4,5,6,7,
{4}3h[8:1]/8b<5[8:1],3h[8:1],3h[8:1]/4v1[8:1],3h[8:1],
2h[8:1]/8-4[8:1],2h[8:1],2h[8:1]/8-6[8:1],2h[8:1],
1pp5[2:3],{8}7,6,,,{4}5,
7,6-8[8:1],{2}6,
{4}6h[8:1]/1>4[8:1],6h[8:1],6h[8:1]/5v8[8:1],6h[8:1],
7h[8:1]/1-5[8:1],7h[8:1],7h[8:1]/1-3[8:1],7h[8:1],
8qq4[8:11],{8}2,3,,,{4}4,
2,3-1[8:1],{2}3,
{8}6h[8:1],4,6h[8:1],4,6h[8:1],4,6h[8:1],5,
6h[8:1],7,6h[8:1],8,6h[8:1],1,6h[8:1],2,
{4}7/3qq8[2:3],{8}6,5,,7,{4}6,
5,7-4[4:1],{2}7,
{8}1,1,6>4[8:1],6,3,3,7-5[8:1],7,
2,2,4,4,6,6,8,8,
1-5[8:1],1,7-4[8:1],7,2-6[8:1],2,8-4[8:1],8,
1-5[8:1],1,1/7<4[8:1],7,{16}7/2,1,8,7,6,5,4,3,
{8}2b/Ch[4:31],,,,,,,E2,
,,,,,,,B4,
,,,,,,,A2,
,,{4}B1,B3,B4,
{8}B8,,,,,,,B7,
,,{4}B5,{8}E7,B7,,E1,
,,,,,,,A7,
,,{4}B8,B6,B5,
7b/2b,{8}6,5,,6/5-1[16:3],,6,
,,{4}2/8,{8}7/3,7,4,5h[8:3]/6h[8:3],
,,,,{2}5h[4:1]/4h[4:1],
{8}3/4,3,{4}5,5/4,6/4,
{8}7b/5,7,7,7,5/7,5,5,5,
5/3b,3,3,3,3/1,1,1,1b/8b,
{32},,,,1x,2,3,4,{8}5,{32}7x,6,5,4,{8}3,{32}2x,3,4,5,{8}6,{32}8x,7,6,5,
{8}4h[8:3],3,2,1,{4}8v3[8:1]*v5[8:1],8b,
{16}4x,3,2,1,{8}8,{16}4x,3,2,1,{8}8,{16}4x,3,2,1,
5x,6,7,8,{8}1,{16}5x,6,7,8,{8}1,{16}5x,6,7,8,
3x,2,1,8,7,6,5,4,3x/7x,8,1,2,3,4,5,6,
{32}1bx,2,3,4,5,6,7,8,1,2,3,4,5,6,7,8,{2}1/5-1[8:1],
{8}6/2,7-3[8:1],,7b/2-6[8:1],,2b/8w4[8:1],,8b/Cf,
,,7,7,6/8,7/1>1[4:3],8/2,1b/3b,
,1,2,3,4,5,{4}6h[4:1],
{16}1x,3,8,2,7,1,6,8,7,5,6,4,5,3,{8}4,
2x/8,1x-5[8:1],,1b<6[8:1]*>4[8:1],,1bw5[8:1],,1b/Cf,
,6xh[8:1],2h[8:1],8h[8:1],4h[8:1],6h[8:1],1h[8:1],5,
{16}8x,6,1,7,2,8,3,1,2,4,3,5,4,6,5,7,
4,3,2,1,5,6,7,8,3,2,1,8,7,6,5,4,
{8}8x/3x,7x-3[8:1],,7b/2b-6[8:1],,2b/8bw4[8:1],,8b/Cf,
,,3,3,2/4,3/5<5[4:3],4/6,5b/7b,
,5,6,7,8,1,{4}2h[4:1],
{16}5x,7,4,6,3,5,2,4,3,5,4,6,3,7,2,8,
{8}1x-5[8:1],1,2-6[8:1],2,3-7[8:1],3,4-8[8:1],4,
5-1[8:1],5,6-2[8:1],6,7-3[8:1],7,8,8h[4:1],
{32},,,,1x,2,3,4,{8}5,{32}7x,6,5,4,{8}3,{32}2x,3,4,5,{8}6,{32}8x,7,6,5,
{8}4h[8:3],3,2,1,{4}8v3[8:1]*v5[8:1],8b,
{16}1x/7h[4:1],2,3,4,{8}5,{16}5/6h[4:1],4,3,2,{8}1,1/7,7/1,
{16}8x/2h[4:1],7,6,5,{8}4,{16}4/3h[4:1],5,6,7,{8}8,8/2,8/2,
{16}3x/4h[4:1],2,1,8,{8}7,{16}7/6h[4:1],8,1,2,{8}3,{4}3h[8:1]/8h[8:1],
{16}2-5[8:1],1,3,1,{8}2,{16}7-4[8:1],8,6,8,{8}7,2,2,
{16}4x/3h[4:1],5,6,7,{8}8,{16}8/1h[4:1],7,6,5,{8}4,4/2,4/2,
{16}3x/4h[4:1],2,1,8,{8}7,{16}7/6h[4:1],8,1,2,{8}3,{4}6h[8:1]/4h[8:1],
{16}7,5,6,5,{8}6h[8:1],{16}2,4,3,4,{8}3h[8:1],{16}7,5,6,5,
{8}7h[8:1],{16}2,4,3,4,{8}2h[8:1],{16}8-4[8:1],1,7,2,{4}8,
{16}1x/8h[4:1],2,3,4,{8}5,{16}6/5h[4:1],7,8,1,{8}2,{32}4h[8:1]/B2,C,{16}B6,,,8x/1h[4:1],
7,6,5,{8}4,{16}3/4h[4:1],2,1,8,{8}7,{32}5h[8:1]/B7,C,{16}B3,,,8x/1h[4:1],
7,6,5,{8}4,{16}4/3h[4:1],5,6,7,{8}8,{4}1h[8:1]/8h[8:1],
{16}2-5[8:1],1,3,8,{8}2,{16}7-4[0.3192##0.1596],8,6,1,{8}7,2,2,
3/1,1/3,2/4,2/4,3/5,3/5,2/6,2/6,
7/1,{16}6,5,{8}6,2/8,{16}3,4,{8}3,7/1,1/7,
{24}8/2,3,4,5,,,{8}7/1,{24}1/7,6,5,{8}4,8/2,{24}8/2,3/7,4/6,5,,,{8}1/6,
{24}8,7,8,{8}7,1/6,1/2,3/4,5/6,7/8,
{24}2x,5,2,5,,,{8}8/1,{24}7x,4,7,{8}4,8/1,{24}2x,7,2,7,{48},,,,{16}1b,
8,2,7,1b,8,2,7,1b,8,3,6,1b,8,3,6,
{1}1bxs5s1[4:15]/8bx<8[4:15],
E
