&title=クピドゥレビュー
&artist=悠木碧
&first=0
&des=woxxow
&lv_5=13+
&inote_5=(137)
{1},
{24}3,,,3,,,5,,,5,,,4,,,4,,6xh[4:1],,,,,,5,
{24}7,,,1,,,24,,24,,,1h[24:4],,,,8xb,,,3xb/Cf,,,,,,
{24}65,,,7,,,64,,,7,,7h[8:1],,,5h[6:1],,,,8x,,,,,,
{24}3x/4,,,2,,,35,,,2,,2h[8:1],,,4h[6:1],,,,3x,,,,,,
{24}46,,7,,,7,5,,,8,,,{16}4,6,{24}4,,,5x,,5,3,,3,
{24}7^1[8:1],,,,,,2p6[32:5],,,,,,5q3[4:1],,,,,,C,,,,,,
{24}1h[4:1],,,,,,3,,,4,,,5h[4:1]/3,,,,,,3,,3,4,,,
{24}2h[4:1],,,,,,4,,,5,,,6h[4:1]/4,,,,,,4,,4,5,,,
{24}3h[4:1],,,,,,5,,,6,,,7h[4:1]/5,,,,,,5,,5,6,,6,
{24},,1,,,1,7^4[32:5],,,1^4b[32:5],,,8x,,,,,,,,,,,,
{24}8h[4:1],,,,,,6,,,5,,,4h[4:1]/6,,,,,,6,,6,5x^3[8:1],,,
{24},,,6x-3[8:1],,,,,,7xq3[32:5],,,,,,6x^3[32:5],,,,,,1x<3b[16:6],,,
{24},,,,,,,,,,,,8,,8,,,1x/7x,2xbh[24:5]/6xb,,,,,4xpp6[32:5],
{24},,,,,,1^4[32:5],,,,,,5-8[8:1],,,,,,,,,,,,
{24}8^5[32:5]/4,,,,,,1,,,,,,{16}2/5^8[32:5],,,3,,,4,,
{16}8/5^2[32:5],,,,7,,7,,1/8-4[32:5],,,,3,,,,
{24}2^5[32:5]/6,,,,,,1,,,,,,{16}8/5^2[32:5],,,7,,,6,,
{24}1b/5-1-7b[32:7],,,,,,1b,,,3-6-2[16:4],,,,,,6b,,,,,,,,,
{24}7h[4:1],,,,,,6h[4:1],,,,,,5h[4:1],,,,,,4h[4:1],,,,,,
{24}3x^6[32:5],,,,,,,,,,,,2xq7[32:6],,,,,,,,,,,,
{24}1b>8b[2:1],,,,,,,,,,,,,,,,,,,,,4,,,
{32},D7/E7,D6,D5,D4,B3,C,B6,E6,E5,E4,E3,E2,E1,E8,B7,C,B2,D2,D1,D8f/A7,,,,,,,,,,,,
{16}34,,2,,35,,2,2h[8:1],,4,,6x,6xh[8:1],,4x,,
{16}65,,7,,64,,7,7h[8:1],,5,,3x,B6f/E7/E6,,,,
{16}34,,2,,35,,2,2h[4:1],,4,,7,7h[8:7],,6x,,
{24}1x,,,3x,,,5x,,,1x,,,3x^8b[8:1],,,2xh[8:1],,,,,,,,,
{16}46,,2,,35,,1,1h[8:1],,8,,7,7h[8:1],,5,,
{16}53,,7,,6^3[32:5]/4,,E8,E2,,,,,1,,1,,
{24}3/4,,,4,,,2,,,5,,5,4,,4,7,,,56,,,,,,
{24}1x/8x,,,7,,,5x/6x,,,7,,7,1x,,,2,,,3x/4x,,,2,,2,
{24}4x,,4,3,,3,6,,6,5,,5,7,,7,8,,,17,,,2xb/6xbh[8:9],,,
{24},,,7xb,,,7xbqq6<4b[32:12],,,,,,,,,,,,,,,,,,
{24}7,8,1,2,3,4,{96}5b,,Cf,,{24},,,,,2,,2,4q8[8:1],,,2-6b[8:1],,,4x,,,
{24},,,8,,,8,,,{32}1x/E8,B6,A5,,,,,,2x/B4,C,B8,,,,,,3x/E1,B1,B2,,
{24}4xq8[8:1],,,,,,34,,,2-6b[8:1],,,,,,6qq6[4:1]*pp6[4:1],,,,,,B6f,,,
{24},,,,,,4,,4,6,,6,1^4[8:1],,,4^7[8:1],,,1,,,7,,,
{24}8-3[8:1]*-4[8:1],,,,,,8b,,,,,,1-3b[32:3],,1,5v3b[48:7]*-1[48:7],,,1,,,5xb,,,
{24},,,,,,2,,,{32}8x/E3,B4,A5,,,,,,7x/B6,C,B2,,,,,,6x/E2,B1,B8,,
{24}5xq3[16:3],,,,,,1x,,,2<6[48:8],,,,,,8h[4:1],,,,,,5x-2[8:1],,,
{24}8,,,5-1[8:1],,,7,,,5,,,7x^4[8:1]*p3[8:1],,,,,,7x,,,,,,
{24}5xh[8:1]/3x,,,2,,,4h[8:1]/3,,,2,,,6h[8:1]/3,,,2x,,2,4,,4,3x,,,
{24}3xh[8:1]/6,,,7,,,5h[8:1]/6,,,7,,,4h[8:1]/6,,,7,,7,5x,,5,6x,,,
{24}5xh[8:1]/2x,,,1,,,4h[8:1]/3,,,1,,,6h[8:1]/2,,,1x,,1,4,,4,3x,,,
{24}3xh[8:1]/7,,,8,,,5h[8:1]/6,,,8,,,4h[8:1]/7,,,8,,8,5,,5,6,,,
{24}3xb>7[4:1],,,,,,7xb<2[4:1],,,,,,2xb<4[4:1],,,,,,4xb-2^1v7^6-4b[32:18],,,,,,
{24}8xb,,,,,,,,,,,,8xbqq8b[16:4]*pp8b[16:4],,,,,,,,,,,,
{24},,,7x/1x,,,3,,3,4,,,{16}6xb/2x,,,7x/4bxv1-3v4[48:41],,,B7/Cf/B3,,
{24},,,,,,,,,,,,,,,8b,,,6b,,,,,,
{24}65,,,7,,,64,,,7,,7h[8:1],,,5h[6:1],,,,8x,,,,,,
{24}3x,,2,4,,3,5,,2,4,,3h[24:3],7h[12:1],,,,2,8,,,,1bv3V15[8:5]/7bv8-6b[8:5],,,
{24},,,,,,,,,,,,,,,,,,,,,,,,E
