&title=リリィ (feat. 倚水)
&artist=吐息./倚水
&first=0.08
&des=心白-HW respects for luvlily
&des_5=心白-HW respects for luvlily
&lv_5=13+
&inote_5=(128){4},,,,{1}1qq4[2:3]/8pp5[2:3],
{4},,,,8p4[8:3]/4p8[8:3],
,,1-5[8:1],
{1}5V72[2:1]*V36[2:1],
{8}8-5[8:1],6,{4}8,{8}1-4[8:1],3,{4}1,
{8}8-3[8:1],6,{4}8,{8}1-6[8:1],3,{4}1,
{8}8>3[8:1],6,{4}8-4[8:1],{8}8<5[8:1],6,{4}8-4[8:1],
{8}8>3[8:1],6,{4}8<5[8:1],8w4[8:1],8,
{32}2>1[6:1]/8qq1[6:1],3/7,{16}4/6,,,{4}2/8,{24}3x,2,1,6x,7,8,2x,3,4,7x,6,5,
2x,1x,8x,6x,5x,4x,1x,8x,7x,5x,4x,3x,{6}2xh[8:1]/6xh[8:1],{24}3x/7x,4x/8x,{4}5b/1b,
{32}7<7[6:1]/1pp7[6:1],6/2,{16}5/3,,,{4}7/1,{24}6x,7,8,3x,2,1,7x,6,5,2x,3,4,
7x,8x,1x,3x,4x,5x,8x,1x,2x,4x,5x,6x,{6}7xh[8:1]/3xh[8:1],{24}6x/2x,5x/1x,{4}4b/8b,
6<1[8:1]/5v2[8:1],5/6,3>8[8:1]/4v7[8:1],4/3,
5/1>4[8:1],6/1<6[8:1],1/2,{16}3,4,{8}3,
{4}2/5,1-4[8:1]/8-5[8:1],8/1,{8}7/5,7/5,
{1}6-2[2:1]/5v3[2:1],
{4}2/1-4[8:1],1/8,7/8-5[8:1],8/1,
4-1[8:1],4/5-8[8:1],5/4-1[8:1],4/8,
7-3[8:1],8-4[8:1],1-5[8:1],{8}2,2,
{4}3v5[8:3]/2qq6[8:3],,,C,
5/3>6[2:1],5,5,5,
5/6<3[2:1],5,5,5,
5/2p7[2:1],5,5,5,
5/7q2[2:1],5,5,5,
3/6pp1[2:1],3,3,3,
8/2pp5[2:1],7,7,7v4[8:1],
7,3<6[8:1],7v2[8:1],1,
{1}1pp4[2:1]/8qq5[2:1],
{8}4b/5b-7[8:1],6,5/4-8[8:1],3,4/5-1[8:1],6,5/4-2[8:1],3,
4/5-7[8:1],6,5/4-8[8:1],3,4/5-1[8:1],6,5/4,3,
2/8,5,7/1,4,2/8,5,7/1,4,
8/2-6[8:1],7,6/2,5,1/7-3[8:1],2,3/7,4,
8b>2[8:1],4,8,4,8<6[8:1],4,8,4,
1/2,3,8/7,6,5/3,7,6/4,2,
3/7,6/2,3/7>1[8:1],6,7/3<5[8:1],2,3/7>1[8:1],6,
7/3<5[8:1],2,3/7,6,2/8,6/4,{4}C,
,,,8xp7[6:1]*<8[8:5],
{8}8b,,,,,E7,E3,5pp4[16:7],
{4}3qq4[16:5],{8},,,,4qq2[8:1]*pp6[8:1],2qq4[8:5]/6pp4[8:5],
{1}4,
{4}4-1[2:1],5,5,5,
5-8[2:1],1,1,1pp5[12:7]*qq5[3:4],
,,,1pp2[3:1]*pp2[3:1],
,,{2}1z5[8:1]/8s4[8:1],
1-5[8:1]/5-1[8:1],8-4[8:1]/4-8[8:1],
{1}2<3[2:1]*-6[4:1],
{2}7-3[8:1]/3-7[8:1],8-4[8:1]/4-8[8:1],
{1}2V48[2:1]/6V84[2:1],
{2}3-7[8:1]/7-3[8:1],1-5[8:1]/5-1[8:1],
4-8[8:1]/8-4[8:1],2-6[8:1]/6-2[8:1],
3>3[2:1],3<3b[2:1],
{1}3V15[2:1]*v5[2:1],
{4}3-5[8:1],5v3[8:1],3-5[8:1],5v3[8:1],
3<5[8:1],5qq3[8:1],3<5[8:1],5qq3[8:1],
6-4[8:1],6v4[8:1],4-6[8:1],4v6[8:1],
6>4[8:1],6qq4[8:1],4<6[8:1],4pp6[8:1],
2>7[16:5],6<2[4:1],2>6[4:1],{8}6,7,
{4}8>4[4:1],4<8[4:1],8>4[4:1],4,
{2}8<6[8:1]*>2[8:1],1qq7[8:1]*pp3[8:1],
{1}C/7q1[2:1]*V53[2:1],
,Ch[4:3],
{8}6b/2b-5[8:1],4,2/1,8,7/5-1[8:1],8,5/3,2,
4/3-7[8:1],5,3/6,5,8v3[8:1]/4v7[8:1],1/5,{4}8/4,
{8}5x/1x<6[8:1],7,1/2,3,4/6p2[8:1],3,6/8,1,
7/8q4[8:1],6,5/8,6,7<4[8:1]/3q8[8:1],6/2,{4}7/3,
{8}5b/1bV35[8:1],3/6,1/8,7,6/4V68[8:1],8/1,4/2,1,
1/2V86[8:1],4/6,2/5,4,3pp3[6:1]/7pp7[6:1],8/4,{4}7/3,
{8}2x/6xV82[8:1],8/4,6/5,4,3/1V35[8:1],4/6,1/7,6,
8/7V53[8:1],3/1,7/2,1,{4}1w5b[8:1],{128}1,Cf,{16},,,{64},,,{8}7b<4[8:1],
4,7>2[8:1],2,7<4[8:1],4,7>2[8:1],2,
7-4[8:1],4V61[4:1],7,2,{4}3,{8}3/1,2,
1/7-4[8:1],5,7,8,8-3[8:1],2,8,4,
5/6qq3[8:3],7,8,1,{4}2,{16}1,8,1,8,
{8}2b-4[8:1],3,8-6[8:1],7,1-5[8:1],2,8,7,
8-6[8:1],1-3[8:1],8-4[8:1],1-5[8:1],8<5[8:1],1>4[8:1],8,1,
{16}7x,6,5,4,6x,5,4,3,5x,4,3x,2,5x/1x,8x/4x,7x/3x,6x<3[16:3]/2xpp3[16:3],
{2}5bx/1bx,{32}2x>6[8:1],3x<7[8:1]*qq2[8:1],{16}4x,
E
