&title=Eleventh Hour (time limit soon! mix)
&artist=hiro remixed by HOUJIROU
&first=0.7
&des=nobder
&des_5=nobder
&lv_5=14
&inote_5=(155){1},,,
{1}7q4[2:1]/3q8[2:1],
{8}7-4[4:1]/3-8[4:1],{16},,,,,,,,,,,,4,5,
{1}2p5[2:1]/6p1[2:1],
{2}5qq8[2:1],1-5[8:1],
{8}4/7,4,3,3,2/5,5,6/3,6,
{8}7/4,6,2/5,3,4/7,6,5/2,3,
{16}4,5,4,5,4,5,4,5,4,5,4,5,4,5,4,5,
{16}3,5,4,5,3,5,4,5,3,5,4,5,3,5,4,5,
{8}3-8[8:1],4,5,6,7-4[8:1],1,7,2-5[8:1],
{8}1,2,6-1[8:1],4,6,3-8[8:1],4,3,
{16}5b,,,5,,,{8}5,{16}5,,,5,,,5,4,
{16}5,,,3,,,{8}3,{16}3,,,3,,,{8}3,
{8}4/3,{16}4,3,,4,{8}3,{16}5,2,,4,{8}3,2,
{8}5/6,{16}5,6,5,6,4,7,4,7,5,6,5,6,5,6,
{16}7/4h[8:1],,,4h[8:1],{8}6,4h[16:1],{16}4/5h[8:1],,,5h[8:1],{8}3,5h[16:1],
{4}5/2,{16}3,4,3,4,3,4,3,4,3,4,3,4,
{4}2/5<1[4:1],{16}1,2,3,4,5,2,3,4,1/5<5[2:1],2,3,4,
{2}5,8w4[8:1],
{4}2q4[2:1],{16},,,,,,,,1,8,7,6,
{2}5q1[8:1],2>5[8:1],
{4}7q6[4:1],{16},,,,,,,,8<5[8:1],1,2,3,
{2}4p8[8:1],7v4[8:1],
{4}3qq8[2:1],{16},,,,,,,,7,6,5,4,
{2}3p7[8:1],6q2[8:1],
{8}8p5[2:1]/1-4[4:1],{16},,,,,,,,3,2,1,6,7,8,
{2}2/1p5[8:1],4w8[8:1],
{8}2/6,4,7/3,5,6/2,4,7/3,5,
{8}4/2,3,7/5,6,1/4,3,8/5,6,
{8}4/3-7[8:1],2,3/4-8[8:1],5,4/3-7[8:1],2,3/5-1[8:1],6,
{8}5/3-8[8:1],2,3/6-1[8:1],7,{4}6/3h[4:1],{16}8,7,{8}6,
{8}7/8-4[8:1],1,8/7-3[8:1],6,7/8-4[8:1],1,8/6-2[8:1],5,
{8}6/1-5[8:1],8,6-2[8:1],7,{4}6/2h[4:1],{16}1,8,7,6,
{8}5pp8[2:1],{16},,,,,,,,1,2,3,7,6,5,
{2}4w8[8:1],{4}6b/2b,{16}3,5,3,5,
{4}6/2,4-1[8:1]/5-8[8:1],4/5,7/3,
{16}5-1[8:1],4,6,3,{4}5b,{8}8/2,7/3,{4}6/4,
{16}5,5,4,6,3,7,2,8,1,1,8,2,7,3,6,4,
{8}5-1[8:1],3/7,5/4w8[8:1],3,{2}4b,
{2}6/5-1[8:1],8/7-4[8:1],
{8}2-5[8:1],2,8-4[8:1],8,{2}2>5[8:1],
{2}2/1-5[8:1],4/3-8[8:1],
{16}6,5,{8}6,1/2,8/3,{2}4-8[8:1]/7-5[8:1],
{2}3/4-8[8:1],1/2-5[8:1],
{16}7,6,{8}7,2/3,4/1,{2}8s4[8:1]/5z1[8:1],
{8}2-5[8:1],8,2,7-4[8:1],8,7,{4}1-5[8:1],
{4}1/2-6[8:1],2/3-7[8:1],3/4,{16}8,6,8,6,
{8}5/4,3,7/5,6,4/2,3,7/5,6,
{8}4/1,3,8/5,6,{4}4-8[8:1]/5-1[8:1],4/5,
{8}3,4/2,6,7/5,3,4/2,6,7/5,
{8}3,{24}1/5,2,3,{8}4,7,{2}6/8-5[8:1],
{8}1/4,3,8/5,6,4/1,3,8/5,6,
{8}1/8,{24}1,2,3,{8}4,7/8,{2}5q2[8:1]/2p5[8:1],
{16}3,4,3,4,2,5,2,5,8,7,8,7,1,6,1,6,
{8}4b,2b,8b,6b,{24}5b,6b,7b,8b,1b,2b,{4}3b,
{4}2q4[2:1],{16},,,,,,,,1,8,7,6,
{2}5q1[8:1],2>5[8:1],
{4}7q6[4:1],{16},,,,,,,,8<5[8:1],1,2,3,
{2}4p8[8:1],7v4[8:1],
{4}3qq8[2:1],{16},,,,,,,,7,6,5,4,
{2}3p7[8:1],6q2[8:1],
{8}8p5[2:1]/1-4[4:1],{16},,,,,,,,3,2,1,6,7,8,
{2}2/1p5[8:1],4w8[8:1],
{8}2/6,4,7/3,5,6/2,4,7/3,5,
{8}4/2,3,7/5,6,1/4,3,8/5,6,
{8}2v5[8:1],1-6[8:1],2,1,{16}8,1,2,3,4/5,6,7,8,
{8}1/2,{16}3,8,3,8,4,7,4,7,5,6,5,6,4,7,
{4}8/3pp8[2:1],{8},,,,7,{16}7,6,
{2}5q1[8:1],2>5[8:1],
{4}7/8,7/6,6/5,5/4,
{8}4/3,3,3/2,2,2/1,1,{16}8/1-5[8:1],8,{8}8,
{8}7/1-3[8:1],6,7/1-5[8:1],6,7/1-4[8:1],8,1/8-4[8:1],7,
{8}2/8-6[8:1],3,2/8-4[8:1],3,2/8<5[8:1],1,{4}8/1,
{16}1,8,1,8,1,8,1,8,1,8,1,8,1,8,1,8,
{16}2,8,1,8,2,8,1,8,2,7,1,8,2,7,1,8,
{16}2,3,4,5,6/1,2,3,4,5/8,1,2,3,4/7,8,1,2,
{4}7-2[8:1]/3-6[8:1],7bp5[4:15]/3bp1[4:15],
E
