&title=Villain Virus
&artist=Kobaryo
&first=-0.88
&des=RisHi
&lv_5=19?
&inote_5=(260)
{2}
,,,,
Chf[1:21],,,,,,,,,,,,,,,,,,,,,,,,,,,,,,,,,,,,,,,,,,
{512}
A1/A2/A3/A4/A5/A6/A7/A8/D1/D2/D3/D4/D5/D6/D7/D8/E1/E2/E3/E4/E5/E6/E7/E8/B1/B2/B3/B4/B5/B6/B7/B8/1bx-5<5[4:31],2bx-6<6b[4:31],3bx-7>7[4:31],4bx-8>8b[4:31],5bx-1>1[4:31],6bx-2>2b[4:31],7bx-3<3[4:31],8bx-4<4b[4:31],
{4},,,,,,,,
{8}
C,C,,C,,C,C,C,C,C,C,C,,C,C,,C,C,,C,,C,C,C,C,C,C,C,,C,C,,C,C,,C,,C,C,C,C,C,C,C,,C,C,,
{16}1/8,2/7,3/6,4/5,3/6,2/7,1/8,2/7,3/6,4/5,3/6,2/7,1/8,2/7,3/6,4h[1:3]/5h[1:3],
{1},,,
{16}3/2,4/1,5/8,6/7,5/8,4/1,3/2,4/1,5/8,6/7,5/8,4/1,3/2,4/1,5/8,6h[1:3]/7h[1:3],
{1},,,
(520)
{16}1b<8[16:1]/8b>1[16:1],2b-7[16:1]/7b-2[16:1]/1/8,3b-6[16:1]/6b-3[16:1]/2/7,4b<5[16:1]/5b>4[16:1]/3/6,4-1[1:3]/5-8[1:3],
{1},,,
{4},,,
{16}4b<5[16:1]/5b>4[16:1],3b-6[16:1]/6b-3[16:1]/4/5,2b-7[16:1]/7b-2[16:1]/3/6,1b<8[16:1]/8b>1[16:1]/2/7,1-4[1:3]/8-5[1:3],
{1},,,
{4},,,
{16}5b<6[16:1]/6b>5[16:1],4b-7[16:1]/7b-4[16:1]/5/6,3b-8[16:1]/8b-3[16:1]/4/7,2b<1[16:1]/1b>2[16:1]/3/8,2-5[1:3]/1-6[1:3],
{1},,,
{4},,,
{16}1b>2[16:1]/2b<1[16:1],8b-3[16:1]/3b-8[16:1]/1/2,7b-4[16:1]/4b-7[16:1]/8/3,6b>5[16:1]/5b<6[16:1]/7/4,6-1[1:3]/5-2[1:3],
{1},,,
{4},,
{4}1b/8,1/8b,,1b/8,1/8b,,1b/8,1/8b,,1b/8,1/8b,,1b/8,1/8b,1b/8,,
{4}1b/8/2/7b,1/8b/2b/7,,1b/8/2/7b,1/8b/2b/7,,1b/8/2/7b,1/8b/2b/7,,1b/8/2/7b,1/8b/2b/7,,1b/8/2/7b,1/8b/2b/7,1b/8/2/7b,,
{4}1b/2/3b/4/5b/6/7b/8,1/2b/3/4b/5/6b/7/8b,1b/2/3b/4/5b/6/7b/8,1/2b/3/4b/5/6b/7/8b,1b/2/3b/4/5b/6/7b/8,1/2b/3/4b/5/6b/7/8b,1b/2/3b/4/5b/6/7b/8,1/2b/3/4b/5/6b/7/8b,1b/2/3b/4/5b/6/7b/8,1/2b/3/4b/5/6b/7/8b,1b/2/3b/4/5b/6/7b/8,1/2b/3/4b/5/6b/7/8b,1b/2/3b/4/5b/6/7b/8,1/2b/3/4b/5/6b/7/8b,1b/2/3b/4/5b/6/7b/8,1/2b/3/4b/5/6b/7/8b,
{32}1-5b[4:12],1b-4[4:12],1-3b[4:12],1b-6[4:12],1-7b[4:12],1b<8b[4:12],1<7[4:12],1b<6b[4:11],1<5[4:11],1b>2b[4:12],1>3[4:10],1b>4b[4:10],1>5[4:10],1bw5b[4:10],1,1b,1,1b,1,1b,1,1b,1,1b,1,1b,1,1b,1,1b,1,1b,1,1b,1,1b,1,1b,1,1b,1,1b,1,1b,1,1b,1,1b,1,1b,1,1b,1,1b,1,1b,1,1b,1,1b,1,1b,1,1b,1,1b,1,1b,1,1b,1,1b,1,1b,1,1b,1,1b,1,1b,1,1b,1,1b,1,1b,1,1b,1,1b,1,1b,1,1b,1,1b,1,1b,1,1b,1,1b,1,1b,1,1b,1,1b,1,1b,1,1bh[1:24],
{4},,1<1-7-2-6-3-5-7-4-8-3-1<1-6-3-8-5-2-7-4-1>1-7-5-3-1>1-6-4-1>1-5-1<1>1-7-1-6-1-5-1-4-1-3-1-5[1:15],
{6}1,1,7,2,6,3,5,7,4,8,3,1,1,6,3,8,5,2,7,4,1,1,7,5,3,1,1,6,4,1,1,5,1,1,1,7,1,6,1,5,1,4,1,3,1,5,1,1,7,2,6,3,5,7,4,8,3,1,1,6,3,8,5,2,7,4,1,1,7,5,3,1,1,6,4,1,1,5,1,1,1,7,1,6,1,5,1,4,1,3,1,5,,,,
{8}8,4,7,5,6,8,4,7,5,6,8,4,7,5,6,8,4,7,5,6pp5pp4pp3pp2pp1pp8pp7pp6[4:1],,,,,,,,,,,,,
{8}1,5,2,4,3,1,5,2,4,3,1,5,2,4,3,1,5,2,4,3qq4qq5qq6qq7qq8qq1qq2qq3[4:1],,,
{32}8,7,6,5,8,7,6,5,8,7,6,5,8,7,6,5,8,7,6,5,,
{8},,,,
{16}1,2,3,4,5,6,7,8,1,2,3,4,5,6,7,8,1,2,3,4,5,6,7,8,
{8},,,,
{16}8,7,6,5,4,3,2,1,8,7,6,5,4,3,2,1,8,7,6,5,4,3,2,1,
{8},,,,
{48}1,4,2,5,3,6,4,7,5,8,6,1,7,2,8,3,1,4,2,5,3,6,4,7,5,8,6,1,7,2,8,3,
{8},,,
{48}8,5,7,4,6,3,5,2,4,1,3,8,2,7,1,6,8,5,7,4,6,3,5,2,4,1,3,8,2,7,1,6,,,
{4},,,,,,,,,,,
{2}8<5<8<5<8<5<8<5<8<5<8<5<8<5<8<5<8<5[2:13]/4>1>4>1>4>1>4>1>4>1>4>1>4>1>4>1>4>1[2:13],8b/4b,1b/5b,8b/4b,1b/5b,8b/4b,1b/5b,8b/4b,1b/5b,8b/4b,1b/5b,8b/4b,1b/5b,,
{4}7pp6[8:1],6-2[8:1],5pp4[8:1],4-8[8:1],3pp2[8:1],2-6[8:1],1pp8[8:1],8-4[8:1],7pp6[8:1],6-2[8:1],5pp4[8:1],4-8[8:1],3pp2[8:1],2-6[8:1],1pp8[8:1],8-4[8:1],7pp6[8:1],6-2[8:1],5pp4[8:1],4-8[8:1],3pp2[8:1],2-6[8:1],1pp8[8:1],8-4[8:1],7pp6[8:1],6-2[8:1],,,,,,,,,
{2}1>4>1>4>1>4>1>4>1>4>1>4>1>4>1>4>1>4[2:13]/5<8<5<8<5<8<5<8<5<8<5<8<5<8<5<8<5<8[2:13],1b/5b,8b/4b,1b/5b,8b/4b,1b/5b,8b/4b,1b/5b,8b/4b,1b/5b,8b/4b,1b/5b,8b/4b,,
{4},2qq3[8:1],3-7[8:1],4qq5[8:1],5-1[8:1],6qq7[8:1],7-3[8:1],8qq1[8:1],1-5[8:1],2qq3[8:1],3-7[8:1],4qq5[8:1],5-1[8:1],6qq7[8:1],7-3[8:1],8qq1[8:1],1-5[8:1],2qq3[8:1],3-7[8:1],4qq5[8:1],5-1[8:1],6qq7[8:1],7-3[8:1],8qq1[8:1],1-5[8:1],2qq3[8:1],3-7[8:1],4qq5[8:1],5-1[8:1],6qq7[8:1],7-3[8:1],8qq1[8:1],1-5[8:1],2qq3[8:1],3-7[8:1],4-8[16:1]*w8[16:1]*-1[16:1]*-7[16:1]*-2[16:1]*-6[16:1]*<5[16:1]*>3[16:1],
{512}4hb[1:6],3hb[1:6],5hb[1:6],A4f,D4f,D5f,A3f,E4f,B4f,E5f,A5f,D3f,E3f,B3f,B5f,E6f,D6f,A2f,B2f,Ch[512:1]f,B6f,A6f,D2f,E2f,B1f,B7f,E7f,D7f,A1f,E1f,B8f,E8f,A7f,D1f,D8f,A8f,,,,,,,,,,,,,,,,,,,,,,,,,,,,,,,,,,,,,,,,,,,,,,,,,,,,,,,,,,,,,,,,,,,,,,,,,,,,,,,,,,,,,,,,,,,,,,,,,,,
{4},,,,,,,,,,,,,,,,,,,,,,,,,,,,,,,
{32}1/2/3/4/5/6/7/8,1,8,1,8,1,8,1,8,1,8,1,8,1,8,1,8,1,8,1,8,1,8,1,8,1,8,1,8,1,8,1,8,1,8,1,8,1,8,1,8,1,8,1,8,1,8,1,8,1,8,1,8,1,8,1,8,1,8,1,8,1,8,1,
{64}1,8,2,7,1,8,2,7,1,8,2,7,1,8,2,7,1,8,2,7,1,8,2,7,1,8,2,7,1,8,2,7,1,8,2,7,1,8,2,7,1,8,2,7,1,8,2,7,1,8,2,7,1,8,2,7,1,8,2,7,1,8,2,7,1,8,2,7,1,8,2,7,1,8,2,7,1,8,2,7,1,8,2,7,1,8,2,7,1,8,2,7,1,8,2,7,1,8,2,7,1,8,2,7,1,8,2,7,1,8,2,7,1,8,2,7,1,8,2,7,1,8,2,7,1,8,
{96}1,8,2,7,3,6,1,8,2,7,3,6,1,8,2,7,3,6,1,8,2,7,3,6,1,8,2,7,3,6,1,8,2,7,3,6,1,8,2,7,3,6,1,8,2,7,3,6,1,8,2,7,3,6,1,8,2,7,3,6,1,8,2,7,3,6,
{112}1,2,3,8,7,6,5,1,2,3,8,7,6,5,1,2,3,8,7,6,5,1,2,3,8,7,6,5,1,2,3,8,7,6,5,1,2,3,8,7,6,5,1,2,3,8,7,6,5,1,2,3,8,7,6,5,1,2,3,8,7,6,5,1,2,3,8,7,6,5,1,2,3,8,7,6,5,1,2,3,8,7,6,5,
{128}1,2,3,4,5,6,7,8,1,2,3,4,5,6,7,8,1,2,3,4,5,6,7,8,1,2,3,4,5,6,7,8,1,2,3,4,5,6,7,8,1,2,3,4,5,6,7,8,1,2,3,4,5,6,7,8,1,2,3,4,5,6,7,8,1,2,3,4,5,6,7,8,1,2,3,4,5,6,7,8,1,2,3,4,5,6,7,8,1,2,3,4,5,6,7,8,1,2,3,4,5,6,7,8,1,2,3,4,5,6,7,8,1,2,3,4,5,6,7,8,1,2,3,4,5,6,7,8,1,2,3,4,5,6,7,8,1,2,3,4,5,6,7,8,1,2,3,4,5,6,7,8,,,,,,
{8},,,,,,,,,,,
{8}6/5,1,4/3,8,6/5,1,4/3,8,6/5,1,4/3,8,6/5,1,4/3,8,5/7,1,4/2,8,5/7,1,4/2,8,5/7,1,4/2,8,5/7,1,4b/2b,8,6b/5b,1,4b/3b,8,6b/5b,1,4b/3b,8,6b/5b,1,4b/3b,8,6b/5b,1,4b/3b,8,5b/7b,1,4b/2b,8,5b/7b,1,4b/2b,8,5b/7b,1,4b/2b,8,5b/7b,1,
{8}4b/3b/2b,8,7b/6b/5b,1,4b/3b/2b,8,7b/6b/5b,1,4b/3b/2b,8,7b/6b/5b,1,4b/3b/2b,8,7b/6b/5b,1,3b/4b/5b,8/7,6b/5b/4b,1/2,3b/4b/5b,8/7,6b/5b/4b,1/2,3b/4b/5b,8/7,6b/5b/4b,1/2,3b/4b/5b,8/7,6b/5b/4b,1/2,3b/4b/5b,8/7,8b/7b/6b/5b,B1/B2/B3/B4/E1/E2/E3/E4/E5f,1b/2b/3b/4b,B8/B7/B6/B5/E1/E8/E7/E6/E5f,8b/7b/6b/5b,B1/B2/B3/B4/E1/E2/E3/E4/E5f,1b/2b/3b/4b,B8/B7/B6/B5/E1/E8/E7/E6/E5f,8b/7b/6b/5b,B1/B2/B3/B4/E1/E2/E3/E4/E5f,1b/2b/3b/4b,B8/B7/B6/B5/E1/E8/E7/E6/E5f,8b/7b/6b/5b,B1/B2/B3/B4/E1/E2/E3/E4/E5f,1b/2b/3b/4b,B8/B7/B6/B5/E1/E8/E7/E6/E5f,8b/7b/6b/5b,B1/B2/B3/B4/E1/E2/E3/E4/E5f,1b/2b/3b/4b,B8/B7/B6/B5/E1/E8/E7/E6/E5f,8b/7b/6b/5b,B1/B2/B3/B4/E1/E2/E3/E4/E5f,1b/2b/3b/4b,B8/B7/B6/B5/E1/E8/E7/E6/E5f,
{32},,,,,,,,,,,,,,,,,,,,,,,,,,,,,,,1/5,2/6,3/7,4/8,5h[4:1]/1h[4:1],,,,,,,,,,,,,4/8,3/7,2/6,1/5,8h[4:1]/4h[4:1],,,,,,,,,,,,1/5,2/6,3/7,4/8,5h[4:1]/1h[4:1],,,,,,,,,,,,,4/8,3/7,2/6,1/5,8h[4:1]/4h[4:1],,,,,,,,,,,,1/5,2/6,3/7,4/8,5h[4:1]/1h[4:1],,,,,,,,,,,,,4/8,3/7,2/6,1/5,8h[4:1]/4h[4:1],,,,,,,,,,,
{1},
{32}1b/5b,2b/6b,3b/7b,4b/8b,5hb[4:1]/1hb[4:1],,,,,,,,,,,,4b/8b,3b/7b,2b/6b,1b/5b,8hb[4:1]/4hb[4:1],,,,,,,,,,,,1b/5b,2b/6b,3b/7b,4b/8b,5hb[4:1]/1hb[4:1],,,,,,,,,,,,4b/8b,3b/7b,2b/6b,1b/5b,8hb[4:1]/4hb[4:1],,,,,,,,,,,,1b/5b,2b/6b,3b/7b,4b/8b,5hb[4:1]/1hb[4:1],,,,,,,,,,,,4b/8b,3b/7b,2b/6b,1b/5b,8hb[4:1]/4hb[4:1],,,,,,,,
{1},
{32}1b/5b,2b/6b/1b/5b,3b/7b/2b/6b,4b/8b/3b/7b,5hb[4:1]/1hb[4:1]/4hb[4:1]/8hb[4:1],,,,,,,,,,,,4b/8b,3b/7b/4b/8b,2b/6b/3b/7b,1b/5b/2b/6b,8hb[4:1]/4hb[4:1]/1hb[4:1]/5hb[4:1],,,,,,,,,,,,1b/5b,2b/6b/1b/5b,3b/7b/2b/6b,4b/8b/3b/7b,5hb[4:1]/1hb[4:1]/4hb[4:1]/8hb[4:1],,,,,,,,,,,,4b/8b,3b/7b/4b/8b,2b/6b/3b/7b,1b/5b/2b/6b,8hb[4:1]/4hb[4:1]/1hb[4:1]/5hb[4:1],,,,,,,,,,,,1b/5b,2b/6b/1b/5b,3b/7b/2b/6b,4b/8b/3b/7b,5hb[4:1]/1hb[4:1]/4hb[4:1]/8hb[4:1],,,,,,,,,,,,4b/8b,3b/7b/4b/8b,2b/6b/3b/7b,1b/5b/2b/6b,8hb[4:1]/4hb[4:1]/1hb[4:1]/5hb[4:1],,,,,,,,,,,,1b/5b,2b/6b/1b/5b,3b/7b/2b/6b,4b/8b/3b/7b,5hb[4:1]/1hb[4:1]/4hb[4:1]/8hb[4:1],,,,,,,,,,,,4b/8b,3b/7b/4b/8b,2b/6b/3b/7b,1b/5b/2b/6b,8hb[4:1]/4hb[4:1]/1hb[4:1]/5hb[4:1],,,,,,,,,,,,1b/5b,2b/6b/1b/5b,3b/7b/2b/6b,4b/8b/3b/7b,5hb[4:1]/1hb[4:1]/4hb[4:1]/8hb[4:1],,,,,,,,,,,,4b/8b,3b/7b/4b/8b,2b/6b/3b/7b,1b/5b/2b/6b,8hb[4:1]/4hb[4:1]/1hb[4:1]/5hb[4:1],,,,,,,,,,,,,,,
{1},,
(9)
{256}1>8z4[400:1]/5z1[400:1],
(260)
{4}1/5,,,,,,,,,,,,,,,,,
{32}1b,2,3,4,5,6,7,8,1b,2,3,4,5,6,7,8,1b/4b,2,3,4,5,6,7,8,1b,2,3,4,5,6,7,8,1b/5b,2,3,4,5,6,7,8,1b,2,3,4,5,6,7,8,1b/6b,2,3,4,5,6,7,8,1b,2,3,4,5,6,7,8,1b/7bh[12:9],2,3,4,5,6,7,8,1b,2,3,4,5,6,7,8,1b,2,3,4,5,6,7,8,
{1},
(9)
{256}2-8-6<2[400:1]/4p8[400:1]*q8[400:1],
(260)
{4}1/5,,,,,,,,,,,,,,,,,
{16}1b/8b,2,3,4,5,6,3b/2b,4,5,6,7,8,5b/4b,6,7,8,1,2,7b/6b,8,1,2,3,4,1b/8b,2,3,4,5,6,3b/2b,4,5,6,7,8,5b/4b,6,7,8,1,2,7b/6b,8,
{1},
{4},
{8}3h[1:3]/7h[1:3],,,,,,,,
{1},,,
(520)
{16}1b<8[16:1]/8b>1[16:1],2b-7[16:1]/7b-2[16:1]/1/8,3b-6[16:1]/6b-3[16:1]/2/7,4b<5[16:1]/5b>4[16:1]/3/6,4-1[1:3]/5-8[1:3],
{1},,,
{4},,,
{16}4b<5[16:1]/5b>4[16:1],3b-6[16:1]/6b-3[16:1]/4/5,2b-7[16:1]/7b-2[16:1]/3/6,1b<8[16:1]/8b>1[16:1]/2/7,1-4[1:3]/8-5[1:3],
{1},,,
{4},,,
{16}5b<6[16:1]/6b>5[16:1],4b-7[16:1]/7b-4[16:1]/5/6,3b-8[16:1]/8b-3[16:1]/4/7,2b<1[16:1]/1b>2[16:1]/3/8,2-5[1:3]/1-6[1:3],
{1},,,
{4},,,
{16}1b>2[16:1]/2b<1[16:1],8b-3[16:1]/3b-8[16:1]/1/2,7b-4[16:1]/4b-7[16:1]/8/3,6b>5[16:1]/5b<6[16:1]/7/4,6-1[1:3]/5-2[1:3],
{1},,,
{4},,
{4}1b/8,1/8b,,1b/8,1/8b,,1b/8,1/8b,,1b/8,1/8b,,1b/8,1/8b,1b/8,,
{4}1b/8/2/7b,1/8b/2b/7,,1b/8/2/7b,1/8b/2b/7,,1b/8/2/7b,1/8b/2b/7,,1b/8/2/7b,1/8b/2b/7,,1b/8/2/7b,1/8b/2b/7,1b/8/2/7b,,
{4}1b/2/3b/4/5b/6/7b/8,1/2b/3/4b/5/6b/7/8b,1b/2/3b/4/5b/6/7b/8,1/2b/3/4b/5/6b/7/8b,1b/2/3b/4/5b/6/7b/8,1/2b/3/4b/5/6b/7/8b,1b/2/3b/4/5b/6/7b/8,1/2b/3/4b/5/6b/7/8b,1b/2/3b/4/5b/6/7b/8,1/2b/3/4b/5/6b/7/8b,1b/2/3b/4/5b/6/7b/8,1/2b/3/4b/5/6b/7/8b,1b/2/3b/4/5b/6/7b/8,1/2b/3/4b/5/6b/7/8b,1b/2/3b/4/5b/6/7b/8,1/2b/3/4b/5/6b/7/8b,
{32}1-5b[4:12],1b-4[4:12],1-3b[4:12],1b-6[4:12],1-7b[4:12],1b<8b[4:12],1<7[4:12],1b<6b[4:11],1<5[4:11],1b>2b[4:12],1>3[4:10],1b>4b[4:10],1>5[4:10],1bw5b[4:10],1,1b,1,1b,1,1b,1,1b,1,1b,1,1b,1,1b,1,1b,1,1b,1,1b,1,1b,1,1b,1,1b,1,1b,1,1b,1,1b,1,1b,1,1b,1,1b,1,1b,1,1b,1,1b,1,1b,1,1b,1,1b,1,1b,1,1b,1,1b,1,1b,1,1b,1,1b,1,1b,1,1b,1,1b,1,1b,1,1b,1,1b,1,1b,1,1b,1,1b,1,1b,1,1b,1,1b,1,1b,1,1b,1,1b,1,1b,1,1b,1,1bh[1:24],
{8},,,,
(1040)
{2}8-6[4:1],6-1[4:1],1-5[4:1],5-2[4:1],2>4[4:1],4-1[4:1],1-5[4:1],5-8[4:1],8<6[4:1],6-1[4:1],1-4[4:1],4>2[4:1],2-8[4:1],8-6[4:1],6-4[4:1],4-2[4:1],2-7[4:1],7-3[4:1],3-6[4:1],6-2[4:1],2-5[4:1],5-1[4:1],1-6[4:1],6-2[4:1],2<2[2:1],,2<2[2:1],,2<2[2:1],,2<2[2:1],,
{2}4b-2b[4:1],2b-5b[4:1],5b-1b[4:1],1b-6b[4:1],6b<8b[4:1],8b-5b[4:1],5b-1b[4:1],1b-4b[4:1],4b>2b[4:1],2b-5b[4:1],5b-8b[4:1],8b<6b[4:1],6b-4b[4:1],4b-2b[4:1],2b-8b[4:1],8b-6b[4:1],6b-3b[4:1],3b-7b[4:1],7b-2b[4:1],2b-6b[4:1],6b-1b[4:1],1b-5b[4:1],5b-2b[4:1],2b-6b[4:1],6b>6b[2:1],,6b>6b[2:1],,6b>6b[2:1],,6b>6b[2:1],,
(520)
{8}1qq8b[16:1],2qq1[16:1],3qq2b[16:1],4qq3[16:1],5qq4b[16:1],6qq5[16:1],7qq6b[16:1],8qq7[16:1],1qq8b[16:1],2qq1[16:1],3qq2b[16:1],4qq3[16:1],5qq4b[16:1],6qq5[16:1],7qq6b[16:1],8qq7[16:1],1qq8b[16:1],2qq1[16:1],3qq2b[16:1],4qq3[16:1],5qq4b[16:1],6qq5[16:1],7qq6b[16:1],8qq7[16:1],1qq8b[16:1],2qq1[16:1],3qq2b[16:1],4qq3[16:1],5qq4b[16:1],6qq5[16:1],7qq6b[16:1],8qq7[16:1],1qq8b[16:1],2qq1[16:1],3qq2b[16:1],4qq3[16:1],5qq4b[16:1],6qq5[16:1],7qq6b[16:1],8qq7[16:1],1qq8b[16:1],2qq1[16:1],3qq2b[16:1],4qq3[16:1],5qq4b[16:1],6qq5[16:1],7qq6b[16:1],8qq7[16:1],1qq8b[16:1],2qq1[16:1],3qq2b[16:1],4qq3[16:1],5qq4b[16:1],6qq5[16:1],7qq6b[16:1],8qq7[16:1],
{4},,,,
{8}1v8b[16:1],8v7[16:1],7v6b[16:1],6v5[16:1],5v4b[16:1],4v3[16:1],3v2b[16:1],2v1[16:1],1v8b[16:1],8v7[16:1],7v6b[16:1],6v5[16:1],5v4b[16:1],4v3[16:1],3v2b[16:1],2v1[16:1],1v8b[16:1],8v7[16:1],7v6b[16:1],6v5[16:1],5v4b[16:1],4v3[16:1],3v2b[16:1],2v1[16:1],1v8b[16:1],8v7[16:1],7v6b[16:1],6v5[16:1],5v4b[16:1],4v3[16:1],3v2b[16:1],2v1[16:1],1v8b[16:1],8v7[16:1],7v6b[16:1],6v5[16:1],5v4b[16:1],4v3[16:1],3v2b[16:1],2v1[16:1],1v8b[16:1],8v7[16:1],7v6b[16:1],6v5[16:1],5v4b[16:1],4v3[16:1],3v2b[16:1],2v1[16:1],,,,,,,,,
{8}1b/8b,,2b/7b,,3b/6b,,4b/5b,,
{16}1?q2b[16:1]/1b/Cf,2?q3[16:1],3?q4b[16:1]/2,4?q5[16:1],5?q6b[16:1]/3b,6?q7[16:1],7?q8b[16:1]/4,8?q1[16:1],1?q2b[16:1]/5b,2?q3[16:1],3?q4b[16:1]/6,4?q5[16:1],5?q6b[16:1]/7b,6?q7[16:1],7?q8b[16:1]/8,8?q1[16:1],1?q2b[16:1]/1b/C,2?q3[16:1],3?q4b[16:1]/2,4?q5[16:1],5?q6b[16:1]/3b,6?q7[16:1],7?q8b[16:1]/4,8?q1[16:1],1?q2b[16:1]/5b,2?q3[16:1],3?q4b[16:1]/6,4?q5[16:1],5?q6b[16:1]/7b,6?q7[16:1],7?q8b[16:1]/8,8?q1[16:1],1?q2b[16:1]/1b/Cf,2?q3[16:1],3?q4b[16:1]/2,4?q5[16:1],5?q6b[16:1]/3b,6?q7[16:1],7?q8b[16:1]/4,8?q1[16:1],1?q2b[16:1]/5b,2?q3[16:1],3?q4b[16:1]/6,4?q5[16:1],5?q6b[16:1]/7b,6?q7[16:1],7?q8b[16:1]/8,8?q1[16:1],1?q2b[16:1]/1b/C,2?q3[16:1],3?q4b[16:1]/2,4?q5[16:1],5?q6b[16:1]/3b,6?q7[16:1],7?q8b[16:1]/4,8?q1[16:1],1?q2b[16:1]/5b,2?q3[16:1],3?q4b[16:1]/6,4?q5[16:1],5?q6b[16:1]/7b,6?q7[16:1],7?q8b[16:1]/8,8?q1[16:1],1?q2b[16:1]/1b/Cf,2?q3[16:1],3?q4b[16:1]/2,4?q5[16:1],5?q6b[16:1]/3b,6?q7[16:1],7?q8b[16:1]/4,8?q1[16:1],1?q2b[16:1]/5b,2?q3[16:1],3?q4b[16:1]/6,4?q5[16:1],5?q6b[16:1]/7b,6?q7[16:1],7?q8b[16:1]/8,8?q1[16:1],1?q2b[16:1]/1b/C,2?q3[16:1],3?q4b[16:1]/2,4?q5[16:1],5?q6b[16:1]/3b,6?q7[16:1],7?q8b[16:1]/4,8?q1[16:1],1?q2b[16:1]/5b,2?q3[16:1],3?q4b[16:1]/6,4?q5[16:1],5?q6b[16:1]/7b,6?q7[16:1],7?q8b[16:1]/8,8?q1[16:1],1?q2b[16:1]/1b/Cf,2?q3[16:1],3?q4b[16:1]/2,4?q5[16:1],5?q6b[16:1]/3b,6?q7[16:1],7?q8b[16:1]/4,8?q1[16:1],1?q2b[16:1]/5b,2?q3[16:1],3?q4b[16:1]/6,4?q5[16:1],5?q6b[16:1]/7b,6?q7[16:1],7?q8b[16:1]/8,8?q1[16:1],1?q2b[16:1]/1b/C,2?q3[16:1],3?q4b[16:1]/2,4?q5[16:1],5?q6b[16:1]/3b,6?q7[16:1],7?q8b[16:1]/4,8?q1[16:1],1?q2b[16:1]/5b,2?q3[16:1],3?q4b[16:1]/6,4?q5[16:1],5?q6b[16:1]/7b,6?q7[16:1],7?q8b[16:1]/8,8?q1[16:1],1?q2b[16:1]/1b/Cf,2?q3[16:1],3?q4b[16:1]/2,4?q5[16:1],5?q6b[16:1]/3b,6?q7[16:1],7?q8b[16:1]/4,8?q1[16:1],1?q2b[16:1]/5b,2?q3[16:1],3?q4b[16:1]/6,4?q5[16:1],5?q6b[16:1]/7b,6?q7[16:1],7?q8b[16:1]/8,8?q1[16:1],1?q2b[16:1]/1b/C,2?q3[16:1],3?q4b[16:1]/2,4?q5[16:1],5?q6b[16:1]/3b,6?q7[16:1],7?q8b[16:1]/4,8?q1[16:1],1?q2b[16:1]/5b,2?q3[16:1],3?q4b[16:1]/6,4?q5[16:1],5?q6b[16:1]/7b,6?q7[16:1],7?q8b[16:1]/8,8?q1[16:1],1?q2b[16:1]/1b/Cf,2?q3[16:1],3?q4b[16:1]/2,4?q5[16:1],5?q6b[16:1]/3b,6?q7[16:1],7?q8b[16:1]/4,8?q1[16:1],1?q2b[16:1]/5b,2?q3[16:1],3?q4b[16:1]/6,4?q5[16:1],5?q6b[16:1]/7b,6?q7[16:1],7?q8b[16:1]/8,8?q1[16:1],1?q2b[16:1]/1b/C,2?q3[16:1],3?q4b[16:1]/2,4?q5[16:1],5?q6b[16:1]/3b,6?q7[16:1],7?q8b[16:1]/4,8?q1[16:1],1?q2b[16:1]/5b,2?q3[16:1],3?q4b[16:1]/6,4?q5[16:1],5?q6b[16:1]/7b,6?q7[16:1],7?q8b[16:1]/8,8?q1[16:1],1?q2b[16:1]/1b/Cf,2?q3[16:1],3?q4b[16:1]/2,4?q5[16:1],5?q6b[16:1]/3b,6?q7[16:1],7?q8b[16:1]/4,8?q1[16:1],1?q2b[16:1]/5b,2?q3[16:1],3?q4b[16:1]/6,4?q5[16:1],5?q6b[16:1]/7b,6?q7[16:1],7?q8b[16:1]/8,8?q1[16:1],1?q2b[16:1]/1b/C,2?q3[16:1],3?q4b[16:1]/2,4?q5[16:1],5?q6b[16:1]/3b,6?q7[16:1],7?q8b[16:1]/4,8?q1[16:1],1?q2b[16:1]/5b,2?q3[16:1],3?q4b[16:1]/6,4?q5[16:1],5?q6b[16:1]/7b,6?q7[16:1],7?q8b[16:1]/8,8?q1[16:1],,1b,,2b,,3b,,,,
{4},
{6}1b/8b,2b/7b,,3b/6b,4b/5b,,,
{12},
{16}1?qq4b[16:1]/8b,1,8?qq3[16:1]/2b,3,7?qq2b[16:1]/4b,5,6?qq1[16:1]/6b,7,5?qq8b[16:1]/A8,A1,4?qq7[16:1]/A2,A3,3?qq6b[16:1]/A4,A5,2?qq5[16:1]/A6,A7,1?qq4b[16:1]/8b,1,8?qq3[16:1]/2b,3,7?qq2b[16:1]/4b,5,6?qq1[16:1]/6b,7,5?qq8b[16:1]/A8,A1,4?qq7[16:1]/A2,A3,3?qq6b[16:1]/A4,A5,2?qq5[16:1]/A6,A7,1?qq4b[16:1]/8b,1,8?qq3[16:1]/2b,3,7?qq2b[16:1]/4b,5,6?qq1[16:1]/6b,7,5?qq8b[16:1]/A8,A1,4?qq7[16:1]/A2,A3,3?qq6b[16:1]/A4,A5,2?qq5[16:1]/A6,A7,1?qq4b[16:1]/8b,1,8?qq3[16:1]/2b,3,7?qq2b[16:1]/4b,5,6?qq1[16:1]/6b,7,5?qq8b[16:1]/A8,A1,4?qq7[16:1]/A2,A3,3?qq6b[16:1]/A4,A5,2?qq5[16:1]/A6,A7,1?qq4b[16:1]/8b,1,8?qq3[16:1]/2b,3,7?qq2b[16:1]/4b,5,6?qq1[16:1]/6b,7,5?qq8b[16:1]/A8,A1,4?qq7[16:1]/A2,A3,3?qq6b[16:1]/A4,A5,2?qq5[16:1]/A6,A7,1?qq4b[16:1]/8b,1,8?qq3[16:1]/2b,3,7?qq2b[16:1]/4b,5,6?qq1[16:1]/6b,7,5?qq8b[16:1]/A8,A1,4?qq7[16:1]/A2,A3,3?qq6b[16:1]/A4,A5,2?qq5[16:1]/A6,A7,1?qq4b[16:1]/8b,1,8?qq3[16:1]/2b,3,7?qq2b[16:1]/4b,5,6?qq1[16:1]/6b,7,5?qq8b[16:1]/A8,A1,4?qq7[16:1]/A2,A3,3?qq6b[16:1]/A4,A5,2?qq5[16:1]/A6,A7,1?qq4b[16:1]/8b,1,8?qq3[16:1]/2b,3,7?qq2b[16:1]/4b,5,6?qq1[16:1]/6b,7,5?qq8b[16:1]/A8,A1,4?qq7[16:1]/A2,A3,3?qq6b[16:1]/A4,A5,2?qq5[16:1]/A6,A7,1?qq4b[16:1]/8b,1,8?qq3[16:1]/2b,3,7?qq2b[16:1]/4b,5,6?qq1[16:1]/6b,7,5?qq8b[16:1]/A8,A1,4?qq7[16:1]/A2,A3,3?qq6b[16:1]/A4,A5,2?qq5[16:1]/A6,A7,1?qq4b[16:1]/8b,1,8?qq3[16:1]/2b,3,7?qq2b[16:1]/4b,5,6?qq1[16:1]/6b,7,5?qq8b[16:1]/A8,A1,4?qq7[16:1]/A2,A3,3?qq6b[16:1]/A4,A5,2?qq5[16:1]/A6,A7,1?qq4b[16:1]/8b,1,8?qq3[16:1]/2b,3,7?qq2b[16:1]/4b,5,6?qq1[16:1]/6b,7,5?qq8b[16:1]/A8,A1,4?qq7[16:1]/A2,A3,3?qq6b[16:1]/A4,A5,2?qq5[16:1]/A6,A7,1?qq4b[16:1]/8b,1,8?qq3[16:1]/2b,3,7?qq2b[16:1]/4b,5,6?qq1[16:1]/6b,7,5?qq8b[16:1]/A8,A1,4?qq7[16:1]/A2,A3,3?qq6b[16:1]/A4,A5,2?qq5[16:1]/A6,A7,1?qq4b[16:1]/8b,1,8?qq3[16:1]/2b,3,7?qq2b[16:1]/4b,5,6?qq1[16:1]/6b,7,5?qq8b[16:1]/A8,A1,4?qq7[16:1]/A2,A3,3?qq6b[16:1]/A4,A5,2?qq5[16:1]/A6,A7,1?qq4b[16:1]/8b,1,8?qq3[16:1]/2b,3,7?qq2b[16:1]/4b,5,6?qq1[16:1]/6b,7,5?qq8b[16:1]/A8,A1,4?qq7[16:1]/A2,A3,3?qq6b[16:1]/A4,A5,2?qq5[16:1]/A6,A7,1?qq4b[16:1]/8b,1,8?qq3[16:1]/2b,3,7?qq2b[16:1]/4b,5,6?qq1[16:1]/6b,7,5?qq8b[16:1]/A8,A1,4?qq7[16:1]/A2,A3,3?qq6b[16:1]/A4,A5,2?qq5[16:1]/A6,A7,,,,
{4},,,
(260)
{2}4h[1:4]/6,,,,,,5hx[1:3]/A5f,,,,,,,,,,7h[1:4]/3,,,,,,2hx[1:3]/A2f,,,,,,,,,,
{8}6/5,4/3,,4/5,,E1,E2,E3,E4,E5,E6,E7,,1x/8x,1x/8x,,
{8}B5/B6,B3/E4,,C,,D2,D3,D4,D5,D6,D7,D8,,B1/B8,E2/E8,,
{8}2/1,8/7,,8/1,,E5,E6,E7,E8,E1,E2,E3,,5x/4x,5x/4x,,
{8}B1/B2,B7/E8,,C,,D6,D7,D8,D1,D2,D3,D4,,B5/B4,E6/E4,,
{8}B2/E3/B3,B5/B6/E6,,C,,1/3,2,3,2/4,3,4,3/5,4,5,4/6,5,6,5/7,6,5,6/4,5,4,5/3,4,,,,,
,8,8,8<5[3:1],,,
{16}1,2,3,4h[32:22],
{8},,,,,5,,6,,7,,8,,,,,,
{12},1,,
{8}1,,,,
{12}2,6,3,7w3[8:1],4,8,5,Cf,,,,,,,,,,,,,,,,,,,,,,,
{8}3/7,1/5,,C,,1-5[8:1],1,1,8-4[8:1],8,8,3,,1/5,3/7,,
{8}2/6,4/8,,C,,5-1[8:1],5,5,4-8[8:1],4,4,7,,4/8,2/6,,
{8}1/4,2,3,4,2/5,3,4,5,3/6,4,5,6,,
(480)
{4}1/8,2,3,4,5,,4/5,,E2,E3,E4,E5,E6,E7,,4/7,3/1,,
{4}7/3,5/1,,C,,7-4[8:1],7,8-4[8:1],8,1-4[8:1],1,2,3/7,1/5,,
{6}B1/E2,B3/E4,B5/E6,B7/E8,,,1,1,1,1,1,,1,,,1,,,1,1,1,1,,,1,1,1,1,1,1,1,1,1,1,1,1,1,1,1,1,1,1w5[16:1]/2w6[16:1]/3w7[16:1]/4w8[16:1]/5w1[16:1]/6w2[16:1]/7w3[16:1]/8w4[16:1],
{6},1b/2b/3b/4b/5b/6b/7b/8b,1,1,1,1,1,1,1,1,1,1,1,1,1,1,1,1,1,1,1,1w5[16:1]/2w6[16:1]/3w7[16:1]/4w8[16:1]/5w1[16:1]/6w2[16:1]/7w3[16:1]/8w4[16:1],,
{8}1b/2b/3b/4b/5b/6b/7b/8b,1,1,1,1,1,1,1,1,1,1,1,1,1,1,1,1,1,1,1,1,1,1,1,1,1,1,1,1,1,1,1w5[16:1]/2w6[16:1]/3w7[16:1]/4w8[16:1]/5w1[16:1]/6w2[16:1]/7w3[16:1]/8w4[16:1],,
{12}1b/2b/3b/4b/5b/6b/7b/8b,1,1,1,1,1,1,1,1,1,1,1,1,1,1,1,1,1,1,1,1,1,1,1,1,1,1,1,1,1,1,1,1,1,1,1,1,1,1,1,1,1,1,1w5[16:1]/2w6[16:1]/3w7[16:1]/4w8[16:1]/5w1[16:1]/6w2[16:1]/7w3[16:1]/8w4[16:1],,,
{16}1b/2b/3b/4b/5b/6b/7b/8b,1,1,1,1,1,1,1,1,1,1,1,1,1,1,1,1,1,1,1,1,1,1,1,1,1,1,1,1,1,1,1,1,1,1,1,1,1,1,1,1,1,1,1,1,1,1w5[16:1]/2w6[16:1]/3w7[16:1]/4w8[16:1]/5w1[16:1]/6w2[16:1]/7w3[16:1]/8w4[16:1],,,,1b/2b/3b/4b/5b/6b/7b/8b,
{4},,,1b/2b,2b/3b,3b/4b,4b/5b,5b/6b,6b/7b,7b/8b,8b/1b,1b/2b,2b/3b,3b/4b,4b/5b,
{8}5b/6b,6b/7b,7b/8b,8b/1b,1b/2b,2b/3b,3b/4b,4b/5b,5b/6b,6b/7b,7b/8b,8b/1b,1b/2b,2b/3b,3b/4b,4b/5b,5b/6b,6b/7b,7b/8b,8b/1b,1b/2b,2b/3b,3b/4b,4b/5b,5b/6b,6b/7b,7b/8b,8b/1b,
{16}1b/2b,2b/3b,3b/4b,4b/5b,5b/6b,6b/7b,7b/8b,8b/1b,1b/2b,2b/3b,3b/4b,4b/5b,5b/6b,6b/7b,7b/8b,8b/1b,1b/2b,2b/3b,3b/4b,4b/5b,5b/6b,6b/7b,7b/8b,8b/1b,1b/2b,2b/3b,3b/4b,4b/5b,5b/6b,6b/7b,7b/8b,8b/1b,1b/2b,2b/3b,3b/4b,4b/5b,5b/6b,6b/7b,7b/8b,8b/1b,1b/2b,2b/3b,3b/4b,4b/5b,5b/6b,6b/7b,7b/8b,8b/1b,
{16}1b/2b/3b,2b/3b/4b,3b/4b/5b,4b/5b/6b,5b/6b/7b,6b/7b/8b,7b/8b/1b,8b/1b/2b,1b/2b/3b,2b/3b/4b,3b/4b/5b,4b/5b/6b,5b/6b/7b,6b/7b/8b,7b/8b/1b,8b/1b/2b,1b/2b/3b,2b/3b/4b,3b/4b/5b,4b/5b/6b,5b/6b/7b,6b/7b/8b,7b/8b/1b,8b/1b/2b,1b/2b/3b,2b/3b/4b,3b/4b/5b,4b/5b/6b,5b/6b/7b,6b/7b/8b,7b/8b/1b,8b/1b/2b,1b/2b/3b,2b/3b/4b,3b/4b/5b,4b/5b/6b,5b/6b/7b,6b/7b/8b,7b/8b/1b,8b/1b/2b,1b/2b/3b,2b/3b/4b,3b/4b/5b,4b/5b/6b,5b/6b/7b,6b/7b/8b,7b/8b/1b,8b/1b/2b,1b/2b/3b,2b/3b/4b,3b/4b/5b,4b/5b/6b,5b/6b/7b,6b/7b/8b,7b/8b/1b,8b/1b/2b,
{24}1b/2b/3b,2b/3b/4b,3b/4b/5b,4b/5b/6b,5b/6b/7b,6b/7b/8b,7b/8b/1b,8b/1b/2b,1b/2b/3b,2b/3b/4b,3b/4b/5b,4b/5b/6b,5b/6b/7b,6b/7b/8b,7b/8b/1b,8b/1b/2b,1b/2b/3b,2b/3b/4b,3b/4b/5b,4b/5b/6b,5b/6b/7b,6b/7b/8b,7b/8b/1b,8b/1b/2b,1b/2b/3b,2b/3b/4b,3b/4b/5b,4b/5b/6b,5b/6b/7b,6b/7b/8b,7b/8b/1b,8b/1b/2b,
{16}1b/2b/3b/4b,2b/3b/4b/5b,3b/4b/5b/6b,4b/5b/6b/7b,5b/6b/7b/8b,6b/7b/8b/1b,7b/8b/1b/2b,8b/1b/2b/3b,1b/2b/3b/4b,2b/3b/4b/5b,3b/4b/5b/6b,4b/5b/6b/7b,5b/6b/7b/8b,6b/7b/8b/1b,7b/8b/1b/2b,8b/1b/2b/3b,1b/2b/3b/4b,2b/3b/4b/5b,3b/4b/5b/6b,4b/5b/6b/7b,5b/6b/7b/8b,6b/7b/8b/1b,7b/8b/1b/2b,8b/1b/2b/3b,1b/2b/3b/4b,2b/3b/4b/5b,3b/4b/5b/6b,4b/5b/6b/7b,5b/6b/7b/8b,6b/7b/8b/1b,7b/8b/1b/2b,8b/1b/2b/3b,1b/2b/3b/4b,2b/3b/4b/5b,3b/4b/5b/6b,4b/5b/6b/7b,5b/6b/7b/8b,6b/7b/8b/1b,7b/8b/1b/2b,8b/1b/2b/3b,1b/2b/3b/4b,2b/3b/4b/5b,3b/4b/5b/6b,4b/5b/6b/7b,5b/6b/7b/8b,6b/7b/8b/1b,7b/8b/1b/2b,8b/1b/2b/3b,1b/2b/3b/4b,2b/3b/4b/5b,3b/4b/5b/6b,,,,,
{4}7b/8b,7b/8b/6b/5b,7b/8b,7b/8b,7b/8b,7b/8b/6b/5b,7b/8b,7b/8b,7b/8b,7b/8b/6b/5b,7b/8b,7b/8b,7b/8b,7b/8b/6b/5b,7b/8b,7b/8b,7b/8b,7b/8b/6b/5b,7b/8b,7b/8b,7b/8b,7b/8b/6b/5b,7b/8b,7b/8b,7b/8b,7b/8b/6b/5b,7b/8b,7b/8b,7b/8b,2b/1b/3b/4b,2b/1b,2b/1b,2b/1b,2b/1b/3b/4b,2b/1b,2b/1b,2b/1b,2b/1b/3b/4b,2b/1b,2b/1b,2b/1b,2b/1b/3b/4b,2b/1b,2b/1b,2b/1b,2b/1b/3b/4b,2b/1b,2b/1b,2b/1b,2b/1b/3b/4b,2b/1b,2b/1b,2b/1b,2b/1b/3b/4b,2b/1b,2b/1b,2b/1b,2b/1b/3b/4b,
{12}3b,5b,2b,5b,2b,5b,2b,5b,2b,5b,2b,5b,2b,5b,2b,5b,2b,5b,1b,5b,1b,5b,1b,5b,1b,5b,1b,5b,1b,5b,1b,5b,1b,5b,1b,,,,1b,5b,8b,5b,8b,5b,8b,5b,8b,5b,8b,5b,8b,5b,8b,5b,8b,5b,8b,5b,8b,5b,8b,5b,8b,5b,8b,5b,7b,5b,7b,5b,7b,5b,7b,5b,7b,5b,7b,5b,7b,5b,7b,5b,7b,5b,7b,5b,7b,5b,7b,,,,,
{16}2b,6b,2b,6b,2b,6b,2b,6b,2b,6b,2b,6b,2b,6b,2b,6b,2b,6b,2b,6b,2b,6b,2b,6b,2b,6b,2b,6b,2b,6b,2b,6b,2b/3b,6b/7b,3b,7b,3b,7b,3b,7b,3b,7b,3b,7b,3b,7b,3b,7b,3b,7b,3b,7b,3b,7b,3b,7b,3b,7b,3b,7b,3b,7b/8b,3b/4b,7b/8b,3b/4b,7b/8b,3b/4b,7b/8b,3b/4b,7b/8b,3b/4b,7b/8b,3b/4b,7b/8b,3b/4b,7b/8b,3b/4b,7b/8b,3b/4b,7b/8b,3b/4b,7b/8b,3b/4b,7b/8b,3b/4b,7b/8b,3b/4b,7b/8b,3b/4b,7b/8b,3b/4b,7b/8b,3b/4b,7b/8b,
{24}4b/6b/3b,8b/2b/7b,4b/6b,8b/2b,4b/6b,8b/2b,4b/6b,8b/2b,4b/6b,8b/2b,4b/6b,8b/2b,4b/6b,8b/2b,4b/6b,8b/2b,4b/6b,8b/2b,4b/6b,8b/2b,4b/6b,8b/2b,4b/6b,8b/2b,4b/6b,8b/2b,4b/6b,8b/2b,4b/6b,8b/2b,4b/6b,8b/2b,4b/6b,8b/2b,A1/A2/A3/A4/A5/A6/A7/A8/B1/B2/B3/B4/B5/B6/B7/B8/D1/D2/D3/D4/D5/D6/D7/D8/E1/E2/E3/E4/E5/E6/E7/E8/Cf,
{1},,,,,,,
{12},,
(520)
{4}1b/2b/3b/4b/5b/6b/7b/8b/1b/2b/3b/4b/5b/6b/7b/8b/1b/2b/3b/4b/5b/6b/7b/8b/1b/2b/3b/4b/5b/6b/7b/8b/1b-5b[16:1]/2b-6b[16:1]/3b-7b[16:1]/4b-8b[16:1]/5b-1b[16:1]/6b-2b[16:1]/7b-3b[16:1]/8b-4b[16:1],,,,,,,,
{4}1b/2b/3b/4b/5b/6b/7b/8b/1b/2b/3b/4b/5b/6b/7b/8b/1b/2b/3b/4b/5b/6b/7b/8b/1b/2b/3b/4b/5b/6b/7b/8b/1bw5b[16:1]/2bw6[16:1]/3bw7b[16:1]/4bw8[16:1]/5bw1b[16:1]/6bw2[16:1]/7bw3b[16:1]/8bw4[16:1],,,,,,,,
{4}1b/2b/3b/4b/5b/6b/7b/8b/1b/2b/3b/4b/5b/6b/7b/8b/1b/2b/3b/4b/5b/6b/7b/8b/1b/2b/3b/4b/5b/6b/7b/8b/1b-5b[16:1]/2b-6b[16:1]/3b-7b[16:1]/4b-8b[16:1]/5b-1b[16:1]/6b-2b[16:1]/7b-3b[16:1]/8b-4b[16:1],1b/2b/3b/4b/5b/6b/7b/8b/1b/2b/3b/4b/5b/6b/7b/8b/1b/2b/3b/4b/5b/6b/7b/8b/1b/2b/3b/4b/5b/6b/7b/8b/1bw5b[16:1]/2bw6[16:1]/3bw7b[16:1]/4bw8[16:1]/5bw1b[16:1]/6bw2[16:1]/7bw3b[16:1]/8bw4[16:1],{4}1b/2b/3b/4b/5b/6b/7b/8b/1b/2b/3b/4b/5b/6b/7b/8b/1b/2b/3b/4b/5b/6b/7b/8b/1b/2b/3b/4b/5b/6b/7b/8b/1b-5b[16:1]/2b-6b[16:1]/3b-7b[16:1]/4b-8b[16:1]/5b-1b[16:1]/6b-2b[16:1]/7b-3b[16:1]/8b-4b[16:1],1b/2b/3b/4b/5b/6b/7b/8b/1b/2b/3b/4b/5b/6b/7b/8b/1b/2b/3b/4b/5b/6b/7b/8b/1b/2b/3b/4b/5b/6b/7b/8b/1bw5b[16:1]/2bw6[16:1]/3bw7b[16:1]/4bw8[16:1]/5bw1b[16:1]/6bw2[16:1]/7bw3b[16:1]/8bw4[16:1],{4}1b/2b/3b/4b/5b/6b/7b/8b/1b/2b/3b/4b/5b/6b/7b/8b/1b/2b/3b/4b/5b/6b/7b/8b/1b/2b/3b/4b/5b/6b/7b/8b/1b-5b[16:1]/2b-6b[16:1]/3b-7b[16:1]/4b-8b[16:1]/5b-1b[16:1]/6b-2b[16:1]/7b-3b[16:1]/8b-4b[16:1],1b/2b/3b/4b/5b/6b/7b/8b/1b/2b/3b/4b/5b/6b/7b/8b/1b/2b/3b/4b/5b/6b/7b/8b/1b/2b/3b/4b/5b/6b/7b/8b/1bw5b[16:1]/2bw6[16:1]/3bw7b[16:1]/4bw8[16:1]/5bw1b[16:1]/6bw2[16:1]/7bw3b[16:1]/8bw4[16:1],{4}1b/2b/3b/4b/5b/6b/7b/8b/1b/2b/3b/4b/5b/6b/7b/8b/1b/2b/3b/4b/5b/6b/7b/8b/1b/2b/3b/4b/5b/6b/7b/8b/1b-5b[16:1]/2b-6b[16:1]/3b-7b[16:1]/4b-8b[16:1]/5b-1b[16:1]/6b-2b[16:1]/7b-3b[16:1]/8b-4b[16:1],1b/2b/3b/4b/5b/6b/7b/8b/1b/2b/3b/4b/5b/6b/7b/8b/1b/2b/3b/4b/5b/6b/7b/8b/1b/2b/3b/4b/5b/6b/7b/8b/1bw5b[16:1]/2bw6[16:1]/3bw7b[16:1]/4bw8[16:1]/5bw1b[16:1]/6bw2[16:1]/7bw3b[16:1]/8bw4[16:1],,
{12}8b/7b/4/3,7b/6b/3/2,6b/5b/2/1,5b/4b/1/8,4b/3b/8/7,3b/2b/7/6,2b/1b/6/5,1b/8b/5/4,8b/7b/4/3,7b/6b/3/2,6b/5b/2/1,5b/4b/1/8,4b/3b/8/7,3b/2b/7/6,2b/1b/6/5,1b/8b/5/4,8b/7b/4/3,7b/6b/3/2,6b/5b/2/1,5b/4b/1/8,4b/3b/8/7,3b/2b/7/6,2b/1b/6/5,1b/8b/5/4,8b/7b/4/3,7b/6b/3/2,6b/5b/2/1,5b/4b/1/8,4b/3b/8/7,3b/2b/7/6,2b/1b/6/5,1b/8b/5/4,8b/7b/4/3,7b/6b/3/2,6b/5b/2/1,5b/4b/1/8,4b/3b/8/7,3b/2b/7/6,2b/1b/6/5,1b/8b/5/4,8b/7b/4/3,7b/6b/3/2,6b/5b/2/1,
{12}8?v1v2v3v4v5v6v7v8>8b[2:3]/1?-4-7-2-5-8-3-6-1>1b[2:3]/2?v3v4v5v6v7v8v1v2>2b[2:3]/3?-6-1-4-7-2-5-8-3<3b[2:3]/4?v5v6v7v8v1v2v3v4<4b[2:3]/5?-8-3-6-1-4-7-2-5<5b[2:3]/6?v7v8v1v2v3v4v5v6<6b[2:3]/7?-2-5-8-3-6-1-4-7>7b[2:3],
{12}5b/4b/1/8,4b/3b/8/7,1hb[2:3]/2h[2:3]/3hb[2:3]/4h[2:3]/5hb[2:3]/6h[2:3]/7hb[2:3]/8h[2:3],,
{4},,,,,,,
{8}1b/8b/2?>4b[4:1],8b/7b,7b/6b/4?-2b[4:1],6b/5b,5b/6b/2?>5b[4:1],6b/7b,7b/8b/5?-1b[4:1],8b/1b,1b/8b/1?>4b[4:1],8b/7b,7b/6b/4?-2b[4:1],6b/5b,5b/6b/2?>5b[4:1],6b/7b,7b/8b/5?-1b[4:1],8b/1b,1b/8b/1?>4b[4:1],8b/7b,7b/6b/4?-2b[4:1],6b/5b,5b/6b/2?>5b[4:1],6b/7b,7b/8b/5?-1b[4:1],8b/1b,1b/8b/1?>4b[4:1],8b/7b,7b/6b/4?-2b[4:1],6b/5b,5b/6b/2?>5b[4:1],6b/7b,7b/8b/5?-1b[4:1],8b/1b,1b/8b/1?>4b[4:1],8b/7b,7b/6b/4?-2b[4:1],6b/5b,5b/6b/2?>5b[4:1],6b/7b,7b/8b/5?-1b[4:1],8b/1b,1b/8b/1?>4b[4:1],8b/7b,7b/6b/4?-2b[4:1],6b/5b,5b/6b/2?>5b[4:1],6b/7b,7b/8b/5?-1b[4:1],8b/1b,1b/8b/1?>4b[4:1],8b/7b,7b/6b/4?-2b[4:1],6b/5b,5b/6b/2?>5b[4:1],6b/7b,7b/8b/5?-1b[4:1],8b/1b,1b/8b/1?>4b[4:1],8b/7b,7b/6b/4?-2b[4:1],6b/5b,5b/6b/2?>5b[4:1],6b/7b,7b/8b/5?-1b[4:1],8b/1b,1b/8b/1?>4b[4:1],8b/7b,7b/6b/4?-2b[4:1],6b/5b,5b/6b/2?>5b[4:1],6b/7b,7b/8b/5?-1b[4:1],8b/1b,1b/8b/1?>4b[4:1],8b/7b,7b/6b/4?-2b[4:1],6b/5b,5b/6b/2?>5b[4:1],6b/7b,7b/8b/5?-1b[4:1],8b/1b,1b/8b/1?>4b[4:1],8b/7b,7b/6b/4?-2b[4:1],6b/5b,5b/6b/2?>5b[4:1],6b/7b,7b/8b/5?-1b[4:1],8b/1b,1b/8b/1?>4b[4:1],8b/7b,7b/6b/4?-2b[4:1],6b/5b,5b/6b/2?>5b[4:1],6b/7b,7b/8b/5?-1b[4:1],8b/1b,1b/8b/1?>4b[4:1],8b/7b,7b/6b/4?-2b[4:1],6b/5b,5b/6b/2?>5b[4:1],6b/7b,7b/8b/5?-1b[4:1],8b/1b,1b/8b/1?>4b[4:1],8b/7b,7b/6b/4?-2b[4:1],6b/5b,5b/6b/2?>5b[4:1],6b/7b,7b/8b/5?-1b[4:1],8b/1b,1b/8b/1?>4b[4:1],8b/7b,7b/6b/4?-2b[4:1],6b/5b,5b/6b/2?>5b[4:1],6b/7b,7b/8b/5?-1b[4:1],8b/1b,,,,,,,,,
{32}1b/2b,1b/2b,B1f/E3f,Cf/B3f,B5f/B4f,2b/3b,2b/3b,B2f/E4f,Cf/B4f,B6f/B5f,3b/4b,3b/4b,B3f/E5f,Cf/B5f,B7f/B6f,4b/5b,4b/5b,B4f/E6f,Cf/B6f,B8f/B7f,5b/6b,5b/6b,B5f/E7f,Cf/B7f,B1f/B8f,6b/7b,6b/7b,B6f/E8f,Cf/B8f,B2f/B1f,7b/8b,7b/8b,B7f/E1f,Cf/B1f,B3f/B2f,8b/1b,8b/1b,B8f/E2f,Cf/B2f,B4f/B3f,1b/2b,1b/2b,B1f/E3f,Cf/B3f,B5f/B4f,2b/3b,2b/3b,B2f/E4f,Cf/B4f,B6f/B5f,3b/4b,3b/4b,B3f/E5f,Cf/B5f,B7f/B6f,4b/5b,4b/5b,B4f/E6f,Cf/B6f,B8f/B7f,5b/6b,5b/6b,B5f/E7f,Cf/B7f,B1f/B8f,6b/7b,6b/7b,B6f/E8f,Cf/B8f,B2f/B1f,7b/8b,7b/8b,B7f/E1f,Cf/B1f,B3f/B2f,8b/1b,8b/1b,B8f/E2f,Cf/B2f,B4f/B3f,,,,
{4},,,
{512}8b,7b,6b,5b,7b,6b,5b,4b,6b,5b,4b,3b,4b,3b,2b,1b,3b,2b,1b,8b,2b,1b,8b,7b,1b,8b,7b,6b,8b,7b,6b,5b,7b,6b,5b,4b,6b,5b,4b,3b,4b,3b,2b,1b,3b,2b,1b,8b,2b,1b,8b,7b,1b,8b,7b,6b,8b,7b,6b,5b,7b,6b,5b,4b,6b,5b,4b,3b,4b,3b,2b,1b,3b,2b,1b,8b,2b,1b,8b,7b,1b,8b,7b,6b,8b,7b,6b,5b,7b,6b,5b,4b,6b,5b,4b,3b,4b,3b,2b,1b,3b,2b,1b,8b,2b,1b,8b,7b,1b,8b,7b,6b,
{4},,,
{32}8b/7b,8b/7b,B8f/E7f,Cf/B6f,B4f/B5f,7b/6b,7b/6b,B7f/E6f,Cf/B5f,B3f/B4f,6b/5b,6b/5b,B6f/E5f,Cf/B4f,B2f/B3f,5b/4b,5b/4b,B5f/E4f,Cf/B3f,B1f/B2f,4b/3b,4b/3b,B4f/E3f,Cf/B2f,B8f/B1f,3b/2b,3b/2b,B3f/E2f,Cf/B1f,B7f/B8f,2b/1b,2b/1b,B2f/E1f,Cf/B8f,B6f/B7f,1b/8b,1b/8b,B1f/E8f,Cf/B7f,B5f/B6f,8b/7b,8b/7b,B8f/E7f,Cf/B6f,B4f/B5f,7b/6b,7b/6b,B7f/E6f,Cf/B5f,B3f/B4f,6b/5b,6b/5b,B6f/E5f,Cf/B4f,B2f/B3f,5b/4b,5b/4b,B5f/E4f,Cf/B3f,B1f/B2f,4b/3b,4b/3b,B4f/E3f,Cf/B2f,B8f/B1f,3b/2b,3b/2b,B3f/E2f,Cf/B1f,B7f/B8f,2b/1b,2b/1b,B2f/E1f,Cf/B8f,B6f/B7f,1b/8b,1b/8b,B1f/E8f,Cf/B7f,B5f/B6f,,,,
{4},,,
{512}1b/2b/3b/4b/5b/6b/7b/8b,1b/2b/3b/4b/5b/6b/7b/8b,1b/2b/3b/4b/5b/6b/7b/8b,1b/2b/3b/4b/5b/6b/7b/8b,1b/2b/3b/4b/5b/6b/7b/8b,1b/2b/3b/4b/5b/6b/7b/8b,1b/2b/3b/4b/5b/6b/7b/8b,1b/2b/3b/4b/5b/6b/7b/8b,1b/2b/3b/4b/5b/6b/7b/8b,1b/2b/3b/4b/5b/6b/7b/8b,1b/2b/3b/4b/5b/6b/7b/8b,1b/2b/3b/4b/5b/6b/7b/8b,1b/2b/3b/4b/5b/6b/7b/8b,1b/2b/3b/4b/5b/6b/7b/8b,1b/2b/3b/4b/5b/6b/7b/8b,1b/2b/3b/4b/5b/6b/7b/8b,1b/2b/3b/4b/5b/6b/7b/8b,1b/2b/3b/4b/5b/6b/7b/8b,1b/2b/3b/4b/5b/6b/7b/8b,1b/2b/3b/4b/5b/6b/7b/8b,1b/2b/3b/4b/5b/6b/7b/8b,1b/2b/3b/4b/5b/6b/7b/8b,1b/2b/3b/4b/5b/6b/7b/8b,1b/2b/3b/4b/5b/6b/7b/8b,1b/2b/3b/4b/5b/6b/7b/8b,1b/2b/3b/4b/5b/6b/7b/8b,1b/2b/3b/4b/5b/6b/7b/8b,1b/2b/3b/4b/5b/6b/7b/8b,1b/2b/3b/4b/5b/6b/7b/8b,1b/2b/3b/4b/5b/6b/7b/8b,1b/2b/3b/4b/5b/6b/7b/8b,1b/2b/3b/4b/5b/6b/7b/8b,1b/2b/3b/4b/5b/6b/7b/8b,1b/2b/3b/4b/5b/6b/7b/8b,1b/2b/3b/4b/5b/6b/7b/8b,1b/2b/3b/4b/5b/6b/7b/8b,1b/2b/3b/4b/5b/6b/7b/8b,1b/2b/3b/4b/5b/6b/7b/8b,1b/2b/3b/4b/5b/6b/7b/8b,1b/2b/3b/4b/5b/6b/7b/8b,1b/2b/3b/4b/5b/6b/7b/8b,1b/2b/3b/4b/5b/6b/7b/8b,1b/2b/3b/4b/5b/6b/7b/8b,1b/2b/3b/4b/5b/6b/7b/8b,1b/2b/3b/4b/5b/6b/7b/8b,1b/2b/3b/4b/5b/6b/7b/8b,1b/2b/3b/4b/5b/6b/7b/8b,1b/2b/3b/4b/5b/6b/7b/8b,1b/2b/3b/4b/5b/6b/7b/8b,1b/2b/3b/4b/5b/6b/7b/8b,1b/2b/3b/4b/5b/6b/7b/8b,1b/2b/3b/4b/5b/6b/7b/8b,1b/2b/3b/4b/5b/6b/7b/8b,1b/2b/3b/4b/5b/6b/7b/8b,1b/2b/3b/4b/5b/6b/7b/8b,1b/2b/3b/4b/5b/6b/7b/8b,1b/2b/3b/4b/5b/6b/7b/8b,1b/2b/3b/4b/5b/6b/7b/8b,1b/2b/3b/4b/5b/6b/7b/8b,1b/2b/3b/4b/5b/6b/7b/8b,1b/2b/3b/4b/5b/6b/7b/8b,1b/2b/3b/4b/5b/6b/7b/8b,1b/2b/3b/4b/5b/6b/7b/8b,1b/2b/3b/4b/5b/6b/7b/8b,1b/2b/3b/4b/5b/6b/7b/8b,1b/2b/3b/4b/5b/6b/7b/8b,1b/2b/3b/4b/5b/6b/7b/8b,1b/2b/3b/4b/5b/6b/7b/8b,1b/2b/3b/4b/5b/6b/7b/8b,1b/2b/3b/4b/5b/6b/7b/8b,1b/2b/3b/4b/5b/6b/7b/8b,1b/2b/3b/4b/5b/6b/7b/8b,1b/2b/3b/4b/5b/6b/7b/8b,1b/2b/3b/4b/5b/6b/7b/8b,1b/2b/3b/4b/5b/6b/7b/8b,1b/2b/3b/4b/5b/6b/7b/8b,1b/2b/3b/4b/5b/6b/7b/8b,1b/2b/3b/4b/5b/6b/7b/8b,1b/2b/3b/4b/5b/6b/7b/8b,1b/2b/3b/4b/5b/6b/7b/8b,1b/2b/3b/4b/5b/6b/7b/8b,1b/2b/3b/4b/5b/6b/7b/8b,1b/2b/3b/4b/5b/6b/7b/8b,1b/2b/3b/4b/5b/6b/7b/8b,1b/2b/3b/4b/5b/6b/7b/8b,1b/2b/3b/4b/5b/6b/7b/8b,1b/2b/3b/4b/5b/6b/7b/8b,1b/2b/3b/4b/5b/6b/7b/8b,1b/2b/3b/4b/5b/6b/7b/8b,1b/2b/3b/4b/5b/6b/7b/8b,1b/2b/3b/4b/5b/6b/7b/8b,1b/2b/3b/4b/5b/6b/7b/8b,1b/2b/3b/4b/5b/6b/7b/8b/8b,
{4},,,
{16}1b/2b/3b,2b/3b/4b,3b/4b/5b,4b/5b/6b,5b/6b/7b,6b/7b/8b,5b/6b/7b,4b/5b/6b,3b/4b/5b,2b/3b/4b,1b/2b/3b,1b/2b/3b,2b/3b/4b,3b/4b/5b,4b/5b/6b,5b/6b/7b,6b/7b/8b,5b/6b/7b,4b/5b/6b,3b/4b/5b,2b/3b/4b,1b/2b/3b/1b-5b[16:1]*-4b[16:1]*-3b[16:1]*-6b[16:1]*-7b[16:1]*<8b[16:1]*<7b[16:1]*<6b[16:1]*<5b[16:1]*>2b[16:1]*>3b[16:1]*>4b[16:1]*>5b[16:1]*z5b[16:1]*s5b[16:1]*v2b[16:1]*v3b[16:1]*v4b[16:1]*v6b[16:1]*v7b[16:1]*v8b[16:1],,,,,,,,,,,,,,,,,,
{64}8,8,8,8,8,8,8,8,8,8,8,8,8,8,8,8,8,8,8,8,8,8,8,8,8,8,8,8,8,8,8,8,8,8,8,8,8,8,8,8,8,8,8,8,8,8,8,8,8,8,8,8,8,8,8,8,8,8,8,8,
(2080)
{64}1b/1b/1b/1b,2b/2b/2b/2b,3b/3b/3b/3b<3b[16:1],1b/1b/1b/1b,2b/2b/2b/2b,3b/3b/3b/3b<3b[16:1],1b/1b/1b/1b,2b/2b/2b/2b,3b/3b/3b/3b<3b[16:1],1b/1b/1b/1b,2b/2b/2b/2b,3b/3b/3b/3b<3b[16:1],1b/1b/1b/1b,2b/2b/2b/2b,3b/3b/3b/3b<3b[16:1],1b/1b/1b/1b,2b/2b/2b/2b,3b/3b/3b/3b<3b[16:1],1b/1b/1b/1b,2b/2b/2b/2b,3b/3b/3b/3b<3b[16:1],1b/1b/1b/1b,2b/2b/2b/2b,3b/3b/3b/3b<3b[16:1],1b/1b/1b/1b,2b/2b/2b/2b,3b/3b/3b/3b<3b[16:1],1b/1b/1b/1b,2b/2b/2b/2b,3b/3b/3b/3b<3b[16:1],1b/1b/1b/1b,2b/2b/2b/2b,3b/3b/3b/3b<3b[16:1],1b/1b/1b/1b,2b/2b/2b/2b,3b/3b/3b/3b<3b[16:1],1b/1b/1b/1b,2b/2b/2b/2b,3b/3b/3b/3b<3b[16:1],1b/1b/1b/1b,2b/2b/2b/2b,3b/3b/3b/3b<3b[16:1],1b/1b/1b/1b,2b/2b/2b/2b,3b/3b/3b/3b<3b[16:1],1b/1b/1b/1b,2b/2b/2b/2b,3b/3b/3b/3b<3b[16:1],1b/1b/1b/1b,2b/2b/2b/2b,3b/3b/3b/3b<3b[16:1],1b/1b/1b/1b,2b/2b/2b/2b,3b/3b/3b/3b<3b[16:1],1b/1b/1b/1b,2b/2b/2b/2b,3b/3b/3b/3b<3b[16:1],1b/1b/1b/1b,2b/2b/2b/2b,3b/3b/3b/3b<3b[16:1],1b/1b/1b/1b,2b/2b/2b/2b,3b/3b/3b/3b<3b[16:1],1b/1b/1b/1b,2b/2b/2b/2b,3b/3b/3b/3b<3b[16:1],1b/1b/1b/1b,2b/2b/2b/2b,3b/3b/3b/3b<3b[16:1],1b/1b/1b/1b,2b/2b/2b/2b,3b/3b/3b/3b<3b[16:1],1b/1b/1b/1b,2b/2b/2b/2b,3b/3b/3b/3b<3b[16:1],1b/1b/1b/1b,2b/2b/2b/2b,3b/3b/3b/3b<3b[16:1],1b/1b/1b/1b,2b/2b/2b/2b,3b/3b/3b/3b<3b[16:1],1b/1b/1b/1b,2b/2b/2b/2b,3b/3b/3b/3b<3b[16:1],1b/1b/1b/1b,2b/2b/2b/2b,3b/3b/3b/3b<3b[16:1],1b/1b/1b/1b,2b/2b/2b/2b,3b/3b/3b/3b<3b[16:1],1b/1b/1b/1b,2b/2b/2b/2b,3b/3b/3b/3b<3b[16:1],1b/1b/1b/1b,2b/2b/2b/2b,3b/3b/3b/3b<3b[16:1],1b/1b/1b/1b,2b/2b/2b/2b,3b/3b/3b/3b<3b[16:1],1b/1b/1b/1b,2b/2b/2b/2b,3b/3b/3b/3b<3b[16:1],1b/1b/1b/1b,2b/2b/2b/2b,3b/3b/3b/3b<3b[16:1],1b/1b/1b/1b,2b/2b/2b/2b,3b/3b/3b/3b<3b[16:1],1b/1b/1b/1b,2b/2b/2b/2b,3b/3b/3b/3b<3b[16:1],1b/1b/1b/1b,2b/2b/2b/2b,3b/3b/3b/3b<3b[16:1],1b/1b/1b/1b,2b/2b/2b/2b,3b/3b/3b/3b<3b[16:1],1b/1b/1b/1b,2b/2b/2b/2b,3b/3b/3b/3b<3b[16:1],1b/1b/1b/1b,2b/2b/2b/2b,3b/3b/3b/3b<3b,
{1},,
{64}1b/8b/7b/3b/4b/5b,1b/8b/7b/3b/4b/5b,1b/8b/7b/3b/4b/5b,1b/8b/7b/3b/4b/5b,1b/8b/7b/3b/4b/5b,1b/8b/7b/3b/4b/5b,1b/8b/7b/3b/4b/5b,1b/8b/7b/3b/4b/5b,1b/8b/7b/3b/4b/5b,1b/8b/7b/3b/4b/5b,1b/8b/7b/3b/4b/5b,1b/8b/7b/3b/4b/5b,1b/8b/7b/3b/4b/5b,1b/8b/7b/3b/4b/5b,1b/8b/7b/3b/4b/5b,1b/8b/7b/3b/4b/5b,1b/8b/7b/3b/4b/5b,1b/8b/7b/3b/4b/5b,1b/8b/7b/3b/4b/5b,1b/8b/7b/3b/4b/5b,1b/8b/7b/3b/4b/5b,1b/8b/7b/3b/4b/5b,1b/8b/7b/3b/4b/5b,1b/8b/7b/3b/4b/5b,1b/8b/7b/3b/4b/5b,1b/8b/7b/3b/4b/5b,1b/8b/7b/3b/4b/5b,1b/8b/7b/3b/4b/5b,1b/8b/7b/3b/4b/5b,1b/8b/7b/3b/4b/5b,1b/8b/7b/3b/4b/5b,1b/8b/7b/3b/4b/5b,1b/8b/7b/3b/4b/5b,1b/8b/7b/3b/4b/5b,1b/8b/7b/3b/4b/5b,1b/8b/7b/3b/4b/5b,1b/8b/7b/3b/4b/5b,1b/8b/7b/3b/4b/5b,1b/8b/7b/3b/4b/5b,1b/8b/7b/3b/4b/5b,1b/8b/7b/3b/4b/5b,1b/8b/7b/3b/4b/5b,1b/8b/7b/3b/4b/5b,1b/8b/7b/3b/4b/5b,1b/8b/7b/3b/4b/5b,1b/8b/7b/3b/4b/5b,1b/8b/7b/3b/4b/5b,1b/8b/7b/3b/4b/5b,1b/8b/7b/3b/4b/5b,1b/8b/7b/3b/4b/5b,1b/8b/7b/3b/4b/5b,1b/8b/7b/3b/4b/5b,1b/8b/7b/3b/4b/5b,1b/8b/7b/3b/4b/5b,1b/8b/7b/3b/4b/5b,1b/8b/7b/3b/4b/5b,1b/8b/7b/3b/4b/5b,1b/8b/7b/3b/4b/5b,1b/8b/7b/3b/4b/5b,1b/8b/7b/3b/4b/5b,1b/8b/7b/3b/4b/5b,1b/8b/7b/3b/4b/5b,1b/8b/7b/3b/4b/5b,1b/8b/7b/3b/4b/5b,1b/8b/7b/3b/4b/5b,1b/8b/7b/3b/4b/5b,1b/8b/7b/3b/4b/5b,1b/8b/7b/3b/4b/5b,1b/8b/7b/3b/4b/5b,1b/8b/7b/3b/4b/5b,1b/8b/7b/3b/4b/5b,1b/8b/7b/3b/4b/5b,1b/8b/7b/3b/4b/5b,1b/8b/7b/3b/4b/5b,1b/8b/7b/3b/4b/5b,1b/8b/7b/3b/4b/5b,1b/8b/7b/3b/4b/5b,1b/8b/7b/3b/4b/5b,1b/8b/7b/3b/4b/5b,1b/8b/7b/3b/4b/5b,1b/8b/7b/3b/4b/5b,1b/8b/7b/3b/4b/5b,1b/8b/7b/3b/4b/5b,1b/8b/7b/3b/4b/5b,1b/8b/7b/3b/4b/5b,1b/8b/7b/3b/4b/5b,1b/8b/7b/3b/4b/5b,1b/8b/7b/3b/4b/5b,1b/8b/7b/3b/4b/5b,1b/8b/7b/3b/4b/5b,1b/8b/7b/3b/4b/5b,1b/8b/7b/3b/4b/5b,1b/8b/7b/3b/4b/5b,1b/8b/7b/3b/4b/5b,1b/8b/7b/3b/4b/5b,1b/8b/7b/3b/4b/5b,1b/8b/7b/3b/4b/5b,1b/8b/7b/3b/4b/5b,1b/8b/7b/3b/4b/5b,1b/8b/7b/3b/4b/5b,1b/8b/7b/3b/4b/5b,1b/8b/7b/3b/4b/5b,1b/8b/7b/3b/4b/5b,1b/8b/7b/3b/4b/5b,1b/8b/7b/3b/4b/5b,1b/8b/7b/3b/4b/5b,1b/8b/7b/3b/4b/5b,1b/8b/7b/3b/4b/5b,1b/8b/7b/3b/4b/5b,1b/8b/7b/3b/4b/5b,1b/8b/7b/3b/4b/5b,1b/8b/7b/3b/4b/5b,1b/8b/7b/3b/4b/5b,1b/8b/7b/3b/4b/5b,1b/8b/7b/3b/4b/5b,1b/8b/7b/3b/4b/5b,1b/8b/7b/3b/4b/5b,1b/8b/7b/3b/4b/5b,1b/8b/7b/3b/4b/5b,1b/8b/7b/3b/4b/5b,1b/8b/7b/3b/4b/5b,1b/8b/7b/3b/4b/5b,1b/8b/7b/3b/4b/5b,1b/8b/7b/3b/4b/5b,1b/8b/7b/3b/4b/5b,1b/8b/7b/3b/4b/5b,1b/8b/7b/3b/4b/5b,1b/8b/7b/3b/4b/5b,1b/8b/7b/3b/4b/5b,1b/8b/7b/3b/4b/5b,1b/8b/7b/3b/4b/5b,1b/8b/7b/3b/4b/5b,1b/8b/7b/3b/4b/5b,1b/8b/7b/3b/4b/5b,1b/8b/7b/3b/4b/5b,1b/8b/7b/3b/4b/5b,1b/8b/7b/3b/4b/5b,1b/8b/7b/3b/4b/5b,1b/8b/7b/3b/4b/5b,1b/8b/7b/3b/4b/5b,1b/8b/7b/3b/4b/5b,1b/8b/7b/3b/4b/5b,1b/8b/7b/3b/4b/5b,1b/8b/7b/3b/4b/5b,1b/8b/7b/3b/4b/5b,1b/8b/7b/3b/4b/5b,1b/8b/7b/3b/4b/5b,1b/8b/7b/3b/4b/5b,1b/8b/7b/3b/4b/5b,1b/8b/7b/3b/4b/5b,1b/8b/7b/3b/4b/5b,1b/8b/7b/3b/4b/5b,1b/8b/7b/3b/4b/5b,1b/8b/7b/3b/4b/5b,1b/8b/7b/3b/4b/5b,1b/8b/7b/3b/4b/5b,1b/8b/7b/3b/4b/5b,1b/8b/7b/3b/4b/5b,1b/8b/7b/3b/4b/5b,1b/8b/7b/3b/4b/5b,1b/8b/7b/3b/4b/5b,1b/8b/7b/3b/4b/5b,1b/8b/7b/3b/4b/5b,1b/8b/7b/3b/4b/5b,1b/8b/7b/3b/4b/5b,1b/8b/7b/3b/4b/5b,1b/8b/7b/3b/4b/5b,1b/8b/7b/3b/4b/5b,1b/8b/7b/3b/4b/5b,1b/8b/7b/3b/4b/5b,1b/8b/7b/3b/4b/5b,1b/8b/7b/3b/4b/5b,1b/8b/7b/3b/4b/5b,1b/8b/7b/3b/4b/5b,1b/8b/7b/3b/4b/5b,1b/8b/7b/3b/4b/5b,1b/8b/7b/3b/4b/5b,1b/8b/7b/3b/4b/5b,1b/8b/7b/3b/4b/5b,1b/8b/7b/3b/4b/5b,1b/8b/7b/3b/4b/5b,1b/8b/7b/3b/4b/5b,1b/8b/7b/3b/4b/5b,1b/8b/7b/3b/4b/5b,1b/8b/7b/3b/4b/5b,1b/8b/7b/3b/4b/5b,1b/8b/7b/3b/4b/5b,1b/8b/7b/3b/4b/5b,1b/8b/7b/3b/4b/5b,1b/8b/7b/3b/4b/5b,1b/8b/7b/3b/4b/5b,1b/8b/7b/3b/4b/5b,1b/8b/7b/3b/4b/5b,1b/8b/7b/3b/4b/5b,1b/8b/7b/3b/4b/5b,1b/8b/7b/3b/4b/5b,1b/8b/7b/3b/4b/5b,1b/8b/7b/3b/4b/5b,1b/8b/7b/3b/4b/5b,1b/8b/7b/3b/4b/5b,1b/8b/7b/3b/4b/5b,1b/8b/7b/3b/4b/5b,1b/8b/7b/3b/4b/5b,1b/8b/7b/3b/4b/5b,1b/8b/7b/3b/4b/5b,1b/8b/7b/3b/4b/5b,1b/8b/7b/3b/4b/5b,1b/8b/7b/3b/4b/5b,1b/8b/7b/3b/4b/5b,1b/8b/7b/3b/4b/5b,1b/8b/7b/3b/4b/5b,1b/8b/7b/3b/4b/5b,1b/8b/7b/3b/4b/5b,1b/8b/7b/3b/4b/5b,1b/8b/7b/3b/4b/5b,1b/8b/7b/3b/4b/5b,1b/8b/7b/3b/4b/5b,1b/8b/7b/3b/4b/5b,1b/8b/7b/3b/4b/5b,1b/8b/7b/3b/4b/5b,1b/8b/7b/3b/4b/5b,1b/8b/7b/3b/4b/5b,1b/8b/7b/3b/4b/5b,1b/8b/7b/3b,1b/8b/7b/3b/4b/5b,1b/8b/7b/3b/4b/5b,1b/8b/7b/3b/4b/5b,1b/8b/7b/3b/4b/5b,1b/8b/7b/3b/4b/5b,1b/8b/7b/3b/4b/5b,1b/8b/7b/3b/4b/5b,1b/8b/7b/3b/4b/5b,1b/8b/7b/3b/4b/5b,1b/8b/7b/3b/4b/5b,1b/8b/7b/3b/4b/5b,1b/8b/7b/3b/4b/5b,1b/8b/7b/3b/4b/5b,1b/8b/7b/3b/4b/5b,1b/8b/7b/3b/4b/5b,1b/8b/7b/3b/4b/5b,1b/8b/7b/3b/4b/5b,1b/8b/7b/3b/4b/5b,1b/8b/7b/3b/4b/5b,1b/8b/7b/3b/4b/5b,1b/8b/7b/3b/4b/5b,1b/8b/7b/3b/4b/5b,1b/8b/7b/3b/4b/5b,1b/8b/7b/3b/4b/5b,1b/8b/7b/3b/4b/5b,1b/8b/7b/3b/4b/5b,1b/8b/7b/3b/4b/5b,1b/8b/7b/3b/4b/5b,1b/8b/7b/3b/4b/5b,1b/8b/7b/3b/4b/5b,1b/8b/7b/3b/4b/5b,1b/8b/7b/3b/4b/5b,1b/8b/7b/3b/4b/5b,1b/8b/7b/3b/4b/5b,1b/8b/7b/3b/4b/5b,1b/8b/7b/3b/4b/5b,1b/8b/7b/3b/4b/5b,1b/8b/7b/3b/4b/5b,1b/8b/7b/3b/4b/5b,1b/8b/7b/3b/4b/5b,1b/8b/7b/3b/4b/5b,1b/8b/7b/3b/4b/5b,1b/8b/7b/3b/4b/5b,1b/8b/7b/3b/4b/5b,1b/8b/7b/3b/4b/5b,1b/8b/7b/3b/4b/5b,1b/8b/7b/3b/4b/5b,1b/8b/7b/3b/4b/5b,1b/8b/7b/3b/4b/5b,1b/8b/7b/3b/4b/5b,1b/8b/7b/3b/4b/5b,1b/8b/7b/3b/4b/5b,1b/8b/7b/3b/4b/5b,1b/8b/7b/3b/4b/5b,1b/8b/7b/3b/4b/5b,1b/8b/7b/3b/4b/5b,1b/8b/7b/3b/4b/5b,1b/8b/7b/3b/4b/5b,1b/8b/7b/3b/4b/5b,1b/8b/7b/3b/4b/5b,1b/8b/7b/3b/4b/5b,1b/8b/7b/3b/4b/5b,1b/8b/7b/3b/4b/5b,1b/8b/7b/3b/4b/5b,1b/8b/7b/3b/4b/5b,1b/8b/7b/3b/4b/5b,1b/8b/7b/3b/4b/5b,1b/8b/7b/3b/4b/5b,1b/8b/7b/3b/4b/5b,1b/8b/7b/3b/4b/5b,1b/8b/7b/3b/4b/5b,1b/8b/7b/3b/4b/5b,1b/8b/7b/3b/4b/5b,1b/8b/7b/3b/4b/5b,1b/8b/7b/3b/4b/5b,1b/8b/7b/3b/4b/5b,1b/8b/7b/3b/4b/5b,1b/8b/7b/3b/4b/5b,1b/8b/7b/3b/4b/5b,1b/8b/7b/3b/4b/5b,1b/8b/7b/3b/4b/5b,1b/8b/7b/3b/4b/5b,1b/8b/7b/3b/4b/5b,1b/8b/7b/3b/4b/5b,1b/8b/7b/3b/4b/5b,1b/8b/7b/3b/4b/5b,1b/8b/7b/3b/4b/5b,1b/8b/7b/3b/4b/5b,
{64}1b/1b/1b/1b/1b,8b/8b/8b/8b/8b,7b/7b/7b/7b/7b,6b/6b/6b/6b/6b,5b/5b/5b/5b/5b,4b/4b/4b/4b/4b>1b[16:1],1b/1b/1b/1b/1b,8b/8b/8b/8b/8b,7b/7b/7b/7b/7b,6b/6b/6b/6b/6b,5b/5b/5b/5b/5b,4b/4b/4b/4b/4b>1b[16:1],1b/1b/1b/1b/1b,8b/8b/8b/8b/8b,7b/7b/7b/7b/7b,6b/6b/6b/6b/6b,5b/5b/5b/5b/5b,4b/4b/4b/4b/4b>1b[16:1],1b/1b/1b/1b/1b,8b/8b/8b/8b/8b,7b/7b/7b/7b/7b,6b/6b/6b/6b/6b,5b/5b/5b/5b/5b,4b/4b/4b/4b/4b>1b[16:1],1b/1b/1b/1b/1b,8b/8b/8b/8b/8b,7b/7b/7b/7b/7b,6b/6b/6b/6b/6b,5b/5b/5b/5b/5b,4b/4b/4b/4b/4b>1b[16:1],1b/1b/1b/1b/1b,8b/8b/8b/8b/8b,7b/7b/7b/7b/7b,6b/6b/6b/6b/6b,5b/5b/5b/5b/5b,4b/4b/4b/4b/4b>1b[16:1],1b/1b/1b/1b/1b,8b/8b/8b/8b/8b,7b/7b/7b/7b/7b,6b/6b/6b/6b/6b,5b/5b/5b/5b/5b,4b/4b/4b/4b/4b>1b[16:1],1b/1b/1b/1b/1b,8b/8b/8b/8b/8b,7b/7b/7b/7b/7b,6b/6b/6b/6b/6b,5b/5b/5b/5b/5b,4b/4b/4b/4b/4b>1b[16:1],1b/1b/1b/1b/1b,8b/8b/8b/8b/8b,7b/7b/7b/7b/7b,6b/6b/6b/6b/6b,5b/5b/5b/5b/5b,4b/4b/4b/4b/4b>1b[16:1],1b/1b/1b/1b/1b,8b/8b/8b/8b/8b,7b/7b/7b/7b/7b,6b/6b/6b/6b/6b,5b/5b/5b/5b/5b,4b/4b/4b/4b/4b>1b[16:1],1b/1b/1b/1b/1b,8b/8b/8b/8b/8b,7b/7b/7b/7b/7b,6b/6b/6b/6b/6b,5b/5b/5b/5b/5b,4b/4b/4b/4b/4b>1b[16:1],1b/1b/1b/1b/1b,8b/8b/8b/8b/8b,7b/7b/7b/7b/7b,6b/6b/6b/6b/6b,5b/5b/5b/5b/5b,4b/4b/4b/4b/4b>1b[16:1],1b/1b/1b/1b/1b,8b/8b/8b/8b/8b,7b/7b/7b/7b/7b,6b/6b/6b/6b/6b,5b/5b/5b/5b/5b,4b/4b/4b/4b/4b>1b[16:1],1b/1b/1b/1b/1b,8b/8b/8b/8b/8b,7b/7b/7b/7b/7b,6b/6b/6b/6b/6b,5b/5b/5b/5b/5b,4b/4b/4b/4b/4b>1b[16:1],1b/1b/1b/1b/1b,8b/8b/8b/8b/8b,7b/7b/7b/7b/7b,6b/6b/6b/6b/6b,5b/5b/5b/5b/5b,4b/4b/4b/4b/4b>1b[16:1],1b/1b/1b/1b/1b,8b/8b/8b/8b/8b,7b/7b/7b/7b/7b,6b/6b/6b/6b/6b,5b/5b/5b/5b/5b,4b/4b/4b/4b/4b>1b[16:1],1b/1b/1b/1b/1b,8b/8b/8b/8b/8b,7b/7b/7b/7b/7b,6b/6b/6b/6b/6b,5b/5b/5b/5b/5b,4b/4b/4b/4b/4b>1b[16:1],1b/1b/1b/1b/1b,8b/8b/8b/8b/8b,7b/7b/7b/7b/7b,6b/6b/6b/6b/6b,5b/5b/5b/5b/5b,4b/4b/4b/4b/4b>1b[16:1],1b/1b/1b/1b/1b,8b/8b/8b/8b/8b,7b/7b/7b/7b/7b,6b/6b/6b/6b/6b,5b/5b/5b/5b/5b,4b/4b/4b/4b/4b>1b[16:1],1b/1b/1b/1b/1b,8b/8b/8b/8b/8b,7b/7b/7b/7b/7b,6b/6b/6b/6b/6b,5b/5b/5b/5b/5b,4b/4b/4b/4b/4b>1b[16:1],1b/1b/1b/1b/1b,8b/8b/8b/8b/8b,7b/7b/7b/7b/7b,6b/6b/6b/6b/6b,5b/5b/5b/5b/5b,4b/4b/4b/4b/4b>1b[16:1],1b/1b/1b/1b/1b,8b/8b/8b/8b/8b,7b/7b/7b/7b/7b,6b/6b/6b/6b/6b,5b/5b/5b/5b/5b,4b/4b/4b/4b/4b>1b[16:1],1b/1b/1b/1b/1b,8b/8b/8b/8b/8b,7b/7b/7b/7b/7b,6b/6b/6b/6b/6b,5b/5b/5b/5b/5b,4b/4b/4b/4b/4b>1b[16:1],1b/1b/1b/1b/1b,8b/8b/8b/8b/8b,7b/7b/7b/7b/7b,6b/6b/6b/6b/6b,5b/5b/5b/5b/5b,4b/4b/4b/4b/4b>1b[16:1],1b/1b/1b/1b/1b,8b/8b/8b/8b/8b,7b/7b/7b/7b/7b,6b/6b/6b/6b/6b,5b/5b/5b/5b/5b,4b/4b/4b/4b/4b>1b[16:1],1b/1b/1b/1b/1b,8b/8b/8b/8b/8b,7b/7b/7b/7b/7b,6b/6b/6b/6b/6b,5b/5b/5b/5b/5b,4b/4b/4b/4b/4b>1b[16:1],1b/1b/1b/1b/1b,8b/8b/8b/8b/8b,7b/7b/7b/7b/7b,6b/6b/6b/6b/6b,5b/5b/5b/5b/5b,4b/4b/4b/4b/4b>1b[16:1],1b/1b/1b/1b/1b,8b/8b/8b/8b/8b,7b/7b/7b/7b/7b,6b/6b/6b/6b/6b,5b/5b/5b/5b/5b,4b/4b/4b/4b/4b>1b[16:1],1b/1b/1b/1b/1b,8b/8b/8b/8b/8b,7b/7b/7b/7b/7b,6b/6b/6b/6b/6b,5b/5b/5b/5b/5b,4b/4b/4b/4b/4b>1b[16:1],1b/1b/1b/1b/1b,8b/8b/8b/8b/8b,7b/7b/7b/7b/7b,6b/6b/6b/6b/6b,5b/5b/5b/5b/5b,4b/4b/4b/4b/4b>1b[16:1],1b/1b/1b/1b/1b,8b/8b/8b/8b/8b,7b/7b/7b/7b/7b,6b/6b/6b/6b/6b,5b/5b/5b/5b/5b,4b/4b/4b/4b/4b>1b[16:1],1b/1b/1b/1b/1b,8b/8b/8b/8b/8b,7b/7b/7b/7b/7b,6b/6b/6b/6b/6b,5b/5b/5b/5b/5b,4b/4b/4b/4b/4b>1b[16:1],1b/1b/1b/1b/1b,8b/8b/8b/8b/8b,7b/7b/7b/7b/7b,6b/6b/6b/6b/6b,5b/5b/5b/5b/5b,4b/4b/4b/4b/4b>1b[16:1],1b/1b/1b/1b/1b,8b/8b/8b/8b/8b,7b/7b/7b/7b/7b,6b/6b/6b/6b/6b,5b/5b/5b/5b/5b,4b/4b/4b/4b/4b>1b[16:1],1b/1b/1b/1b/1b,8b/8b/8b/8b/8b,7b/7b/7b/7b/7b,6b/6b/6b/6b/6b,5b/5b/5b/5b/5b,4b/4b/4b/4b/4b>1b[16:1],1b/1b/1b/1b/1b,8b/8b/8b/8b/8b,7b/7b/7b/7b/7b,6b/6b/6b/6b/6b,5b/5b/5b/5b/5b,4b/4b/4b/4b/4b>1b[16:1],1b/1b/1b/1b/1b,8b/8b/8b/8b/8b,7b/7b/7b/7b/7b,6b/6b/6b/6b/6b,5b/5b/5b/5b/5b,4b/4b/4b/4b/4b>1b[16:1],1b/1b/1b/1b/1b,8b/8b/8b/8b/8b,7b/7b/7b/7b/7b,6b/6b/6b/6b/6b,5b/5b/5b/5b/5b,4b/4b/4b/4b/4b>1b[16:1],1b/1b/1b/1b/1b,8b/8b/8b/8b/8b,7b/7b/7b/7b/7b,6b/6b/6b/6b/6b,5b/5b/5b/5b/5b,4b/4b/4b/4b/4b>1b[16:1],
{1},,,,1hb[1:25]/2hb[1:25]/3hb[1:25]/4hb[1:25]/5hb[1:25]/6hb[1:25]/7hb[1:25]/8hb[1:25]/1hb[1:25]/2hb[1:25]/3hb[1:25]/4hb[1:25]/5hb[1:25]/6hb[1:25]/7hb[1:25]/8hb[1:25]/1hb[1:25]/2hb[1:25]/3hb[1:25]/4hb[1:25]/5hb[1:25]/6hb[1:25]/7hb[1:25]/8hb[1:25]/1hb[1:25]/2hb[1:25]/3hb[1:25]/4hb[1:25]/5hb[1:25]/6hb[1:25]/7hb[1:25]/8hb[1:25]/1hb[1:25]/2hb[1:25]/3hb[1:25]/4hb[1:25]/5hb[1:25]/6hb[1:25]/7hb[1:25]/8hb[1:25]/1hb[1:25]/2hb[1:25]/3hb[1:25]/4hb[1:25]/5hb[1:25]/6hb[1:25]/7hb[1:25]/8hb[1:25]/1hb[1:25]/2hb[1:25]/3hb[1:25]/4hb[1:25]/5hb[1:25]/6hb[1:25]/7hb[1:25]/8hb[1:25]/1hb[1:25]/2hb[1:25]/3hb[1:25]/4hb[1:25]/5hb[1:25]/6hb[1:25]/7hb[1:25]/8hb[1:25]/1hb[1:25]/2hb[1:25]/3hb[1:25]/4hb[1:25]/5hb[1:25]/6hb[1:25]/7hb[1:25]/8hb[1:25]/1hb[1:25]/2hb[1:25]/3hb[1:25]/4hb[1:25]/5hb[1:25]/6hb[1:25]/7hb[1:25]/8hb[1:25]/1hb[1:25]/2hb[1:25]/3hb[1:25]/4hb[1:25]/5hb[1:25]/6hb[1:25]/7hb[1:25]/8hb[1:25]/1hb[1:25]/2hb[1:25]/3hb[1:25]/4hb[1:25]/5hb[1:25]/6hb[1:25]/7hb[1:25]/8hb[1:25]/1hb[1:25]/2hb[1:25]/3hb[1:25]/4hb[1:25]/5hb[1:25]/6hb[1:25]/7hb[1:25]/8hb[1:25]/1?<1<1<1>1>1>1>1>1-7-2-6-3-8-4-6-2-8-3-6-1-5-7v4v2v3v5v8p1p7p3p2p8p5p6p4q2q4q6q7q5q7q5q6q3q2q5q6pp2p4pp6p7p8pp8qq6qq5q8qq7qq4q3q2qq6q5qq4q8q7qq6q5q7qq3q1qq7q5<1>3<2>5<4>7<5>5>5<3<3>6>7>8<1>4>6>3pp2pp4pp6pp1qq8qq7p4q8p5q7p1q8q2[1:25],
