&title=Light Sound Form
&artist=Au5
&first=0
&des=Atscamy_
&des_5=Atscamy_
&lv_5=13+
&inote_5=(120){4},{1},,{4},,{12}2h[8:5],
,4h[6:5],
{4},,,{16},,,3h[8:5],
,,{8}7h[8:7],,,,,,,{4}5p3[4:3],
8h[4:5],{1},{4},,,{16}E6,
E4,{8}Ch[4:1],,1q3[8:3],{4},,{48}4,
5,6,7pp5[16:23],{4},{16},,{24},{16}4,3,{8}2<5b[8:7],
,,,,,,,,,,{4}E4h[4:13],
,,,E2,
,,,E8,
,,E6,
{16},,,,,,,,5,4,{8}6h[8:1],
{24}3,2,1,8,7,6,{4}5/1bh[4:1],{2}4pp2[4:5],
{1}1<2b[4:3],
{4},E1h[4:3],{8},E3,,,{4}E5,
E7h[4:3],{8},E4,,,{4}E2,
8pp5[2:3],,,,,,,1>4[8:1],
{32}6,7,{16}8z4>6b[16:39],,,,,,,,,,,,,,,,,,,{2}5pp6[4:5],
{1},{4},{48}2-8[16:1],
3,4,5,,,,,,,,,{8}6/2>5[16:1],5,{4}6p1[8:1],
{8}1>4[8:1]*<7[8:1],2,{4}1q7[8:1],5<7[8:1]*>3[8:1],5p3[4:1],
{48}8>3b[12:1],7,{24}6,,,,,{4}8<5[12:1],{16}8-4[12:1],2,,2,{8}8,2h[8:1],
{32}5,6,{16}7,{8}3b,{32}8b/2h[8:1],7,6,5,,,,,7b/1h[8:1],6,5,4,,,,,2b/6h[16:1],3,4,5,6,7,8,1,
{8}2h[16:1]/4h[16:1],5b/1b,{48}7-1[16:1],6,5,4,,,,,,,,,{8}3/7<4[16:1],4,{4}3q8[8:1],
{8}8<5[8:1]*>2[8:1],7,{4}8p2[8:1],4>2[8:1]*<6[8:1],4q6[4:1],
{48}1<6b[12:1],2,{24}3,,,,,{4}1>4[12:1],{16}1-5[12:1],7,,7,{8}1,8h[8:1],
{32}4,3,{16}2,{8}6h[8:1],2h[8:3],{48}7b,8,1,3,4,5,{4}6xh[4:1],{48}1b,8,7,5,4,3,{8}2xh[8:1],
{16}6b<8[16:1],2,{8}5/3,{4}6/4xh[8:1],5h[8:1],6h[8:1],
7h[8:1],8h[8:1]/2-6[8:1],4h[8:1],5xh[8:1]/3xv5[8:1],
6h[8:1]/3-1[16:1],{8}3/7,{16}8,2,{4}7/1h[8:1],6/8h[8:1],
7h[8:1]/5-1[8:1],3h[8:1],4xh[8:1]/8xv6[8:1],{8}2/8,3b,
{16}5,3b,,,{8}2/4,4,5/2,5,6/2,6,
7/2,7,3/8,3,8/2,2,1/8,2,
8/1,7,{16}3,8,2,1,4,7,2,1,3,6,1,8,
3,5,8,7,{24}1,2,3,7,6,5,2,3,4,8,7,6,{4}5h[4:1]/1<3[4:1],
,7h[2:1],,1qq4[4:5],
,,,6<4b[4:1],
,E4h[2:1],,2pp8[4:5],
,,,6>8b[4:1],
,E1h[2:1],,2qq4[4:5],
,,,6<4b[4:1],
,E4h[2:1],,8xpp5[1:1],
,3qq5b[2:1],{8},,,,,3xh[8:1],
{48},4x,5x,6x,{6}7xpp4[4:1],{48}7,,,2,,,{8}7,{4}3xh[8:3],
{32},,,,,,,,3x/6h[8:1],4x,,,,,,,3/7h[8:1],4,{16}5,{32},,,,2/8h[8:1],3,4,5,6,7,8,1,
2/7h[16:1],3,4,5,6,7,8,1,2/6,,,5,3,,,3,{4}5qq7[2:1],1h[2:1],
{32},,,,,,,,,,,,,,,,6/2h[8:1],5,4,3,1,8,7,6,{4}5/1bxq5[4:1],
{48},,,,,,,,,,,,6,7,8,1p5[8:1],,,,,,,,,{16}3,1,,,2h[16:1],4,,4,
{4}1h[8:1],{32}6/2h[8:1],7,,,,,,,6/3h[8:1],7,{16}8,{32},,,,5/4h[8:1],6,7,8,1,2,3,4,
5/3h[8:1],6,7,8,1,2,3,4,5/2bxqq5[4:1],,,3,4,,,4,{4}2,6xh[8:3],
{24},,,4xh[48:1],3xh[48:1],2xh[48:1],{4}1xh[48:1]/5xh[48:1],2h[48:1]/6h[48:1],{8}3h[48:1]/7h[48:1],{32}7,5,7,5,
{8}8<5[8:1],3,{4}8/1,{16}4-8[8:1],,,3,{8}4,2,
{4}7/1>4[8:1],{16}1/8,,,6,{12}5-3[16:1],7,{24},8,{4}5,
{12}1/2>5[8:1],{24}7,5-1[8:1],,,{4}2/8-6[16:1],{16}8-4[8:1],,,3,{8}8,2,
{4}5/1>4[8:1],{16}1/6,,,7,5-3[16:1],6,,8,{8}5,7,
{32}6/2-6b[12:1],5,4,3,2,1,8,7,{4}6/2b>5[12:1],{24}2/8-4[12:1],,,,,5,{8}8<5[12:1],3,
{4}2-6b[12:1],5h[8:1]/2>5[12:1],{24}8-4[12:1],,,,,5,{12}8<5[12:1],{24}3,2,,,{8}1-5b[12:1],
{24}2,,4,{4}1>4[12:1],{24}1/6-2[12:1],,,,,5,{8}6,4,
3/1-6b[12:1],{24}7,6,5,{4}4/1>4[12:1],{12}1,6,{24},7,{8}5,8,
{24}1/3,4,5,6,7,8,{8}1/5-1b[12:1],4/2,3<6[12:1],{24}2-6[12:1],,8,{4}3,
1b>4b[12:1],{24}1/6-2[12:1],,,,,5,{12}6>3[12:1],3,{24},2,{8}6-1[12:1],1,
{24}2v7b[12:1],3,4,5h[8:1],,,{4}2>5[12:1],{24}2/8-4b[12:1],,,,,5,{8}8<5[12:1],3,
{4}2-6b[12:1],5/2>5[12:1],{24}2/8-4b[12:1],,,,,5,{8}8,3,
{32}6/2,5,4,3,2,1,8,7,{8}6/2b>5[12:1],5b/7b,{24}2/8-4b[12:1],,,,,5,{8}8,2,
{4}3x/1x-5b[12:1],{24}5/1>4[12:1],,,,,1,{8}7-5b[12:1],8-4[12:1],{24},,,,,,1<2[4:1],
8<2[24:5],7<2[6:1],6>2[8:1],,,{4}1-5[12:1],1>4b[12:1],{8}1-5[12:1]/5-1[12:1],7,
{4}5<8b[12:1],{24}5/2-6[12:1],,,,,1,{12}2>5b[12:1],7,{24},2,{8}8-4[12:1],7,
{4}5/8<5[4:1],5>2[0.5##0.5],2<7[0.5##0.5455],(110)7<4[0.5455##0.5714],
(105)4>1[0.5714##0.5714],1<6[0.5714##0.6],(100)5h[8:1],(95)3h[8:1],
{1}4h[8:1]/2h[8:1],
E
