&title=STARTLINER
&artist=ASTERISM
&first=0.01
&des=O.N.G.E.K.I.
&lv_5=13?
&inote_5=(135)
{1}
,,
{16}
4b-8[2:3],,,,,,,,,,,,,,,,
{16}
,,,,,,,,,,,,,,,,
{16}
4-7[2:3]*-1[2:3],,,,,,,,,,,,,,,,
{16}
,,,,,,,,,,,,,,,,
{16}
4w8[2:3],,,,,,,,,,,,,,,,
{16}
,,,,,,,,,,,,,,,,
{16}
2>4[8:1],,,,,,,,5<7[8:1],,,,,,,,
{16}
2>4[8:1],,,,5<7[8:1],,,,1V35[4:1],,,,5<3[2:1],,,,
{16}
8b>3[4:1],,,,,,,,7-4[8:1],,,,4-7[8:1],,,,
{16}
7V52[4:1],,,,,,,,1-4[8:1],,,,4-1[8:1],,,,
{16}
1V73[4:1],,,,,,,,6-4[8:1],,,,4-6[8:1],,,,
{16}
6<2[4:1],,,,,,,,3pp5[16:3],,,5p8[16:3],,,8<6[8:1],,
{16}
6-1[8:1]*-3[8:1],,,,,,,,2-5[8:1],,,,5-2[8:1],,,,
{16}
2<7[8:1],,,,,,,,6v3[8:1]*-1[8:1],,,,,,,,
{16}
8<5[16:3],,,5>2[16:3],,,2-8[8:1],,8q5[16:3],,,5q2[16:3],,,2>8[8:3],,
{16}
,,,,,,,,1s5[8:1]*z5[8:1],,,,,,,,
{16}
3p4[8:3],,,,,,,,,,5<8[8:1],,,,5q3[8:3],,
{16}
,,,,,,,,8-4[8:1],,,,2<7[8:1],,,,
{16}
6q5[8:3],,,,,,,,,,4>1[8:1],,,,4p6[8:3],,
{16}
,,,,,,,,1s5[16:3],,,,,,,,
{16}
1-6[8:1]*s5[16:3],,,,,,,,6<2[16:3],,,,,,,,
{16}
6<2[16:3]*q3[16:3],,,,,,,,4-8[8:1],,,,,,1bV73[2:1]*s5[2:1],,
{16}
,,,,,,,,,,,,,,5p4[4:1],,
{16}
,,,,,,2-6[8:1],,6-2[8:1],,,,,,,,
{16}
8-3[8:1],,,,3-8[8:1],,,,8-4[8:1],,,,4-8[8:1],,,,
{16}
8-5[8:1],,,,5-8[8:1],,,,8p7[4:1],,,,,,,,
{16}
1-6[8:1],,,,6-1[8:1],,,,1-5[8:1],,,,5-1[8:1],,,,
{16}
1-4[8:1],,,,4-1[8:1],,,,1<6[8:1],,,,5pp7[8:1],,5qq3[8:1],,
{16}
,,,,5pp7[8:1]*qq3[8:1],,,,,,,,4qq2[8:1],,4pp6[8:1],,
{16}
,,,,4qq2[8:1]*pp6[8:1],,,,,,,,3-8[8:1],,,,
{16}
5-7[8:1],,,,4-1[8:1],,,,6-8[8:1],,,,5-1[8:1],,,,
{16}
1>4[8:1]/5<8[8:1],,,,1-6[8:1]/5-2[8:1],,,,1-5[8:1],,,,,,,,
{16}
8-5[8:1],,,,8-4[8:1],,,,8-3[8:1],,,,,,,,
{16}
3?-8[8:1]*-8[8:1],,,,4?-8[8:1]*-8[8:1],,,,5?-8[8:1]*-8[8:1],,,,,,,,
{16}
1-4[8:1],,,,1-5[8:1],,,,1-6[8:1],,,,,,,,
{16}
6?-1[8:1]*-1[8:1],,,,5?-1[8:1]*-1[8:1],,,,4?-1[8:1]*-1[8:1],,,,,,,,
{16}
7V53[4:1],,,,3<8[4:1],,,,8>7[2:1],,,,,,,,
{16}
7V13[4:1],,,,3>6[4:1],,,,6>2[4:1],,,,2<4[8:3],,,,
{16}
,,,,,,,,3>8[16:3],8-6[8:1]*<5[8:1],2-8[16:1],,,,,,
{16}
,,4-7[16:1],,,2-5[16:1],,,8w4[4:1],,,,,,,,
{16}
,,,,8<5[8:1],,5>2[8:1],,1-5[8:1],,,,,,,,
{16}
4>1[8:1],,1<6[8:1],,5-1[8:1],,,,,,,,2-5[8:1]/7-1[8:1],,,,
{16}
,,,,1<6[8:1],,6>3[8:1],,2-6[8:1],,,,,,,,
{16}
4-7[8:1],,7-3[8:1],,3-6[8:1],,,,1-6[8:1]*-4[8:1],,,,1w5[8:1],,,,
{16}
,,,,3>1[8:1],,1<7[8:1],,5v7[8:1]*v3[8:1],,,,,,,,
{16}
6<1[8:1]/4>1[8:1],,,,,,,,8-4[8:1]/2-6[8:1],,,,,,,,
{16}
7b>5[8:3]/3b<1[8:3],,,,,,,,,,,,6-3[8:1],,,,
{16}
1-7[8:1],,,,5-2[8:1],,,,8-6[8:1],,,,1-4[8:1],,,,
{16}
1bs5[2:3],,,,,,,,,,,,,,,,
{16}
,,,,,,,,,,,,,,,,
{16}
3h[1:1],,,,,,,,,,,,,,,,
{16}
,,,,,,8,,,,2,,,,7,,
{16}
6h[1:1]/5,,,,,,,,,,,,,,,,
{16}
,,,,,,7/8,,,,1/2,,,,3/4,,
{16}
5-8[4:3],,,,,,,,,,,,,,,,
{16}
1pp1[4:1],,,,,,,,8qq8[4:1],,,,,,,,
{16}
2V46[4:1],,,,6<4[2:1],,,,,,,,,,,,
{16}
5-7[8:1]*-8[8:1],,,,5-3[8:1]*-2[8:1],,,,5w1[8:1],,,,,,,,
{16}
7-4[8:1]/3-8[8:1],,,,,,,,4-7[8:1]/8-3[8:1],,,,,,,,
{16}
8V64[16:3],,,,3<8[4:1],,,,8-4[8:1],,,,,,,,
{16}
2>5[8:1]/5-8[8:1],,,,,,,,7<4[8:1]/4-1[8:1],,,,,,,,
{16}
8V25[16:3],,,,6>1[4:1],,,,1p8[4:1],,,,,,,,
{16}
7-4[8:1]*-3[8:1],,,,,,,,7-4[8:1],,7-3[8:1],,,,,,
{16}
5-8[8:1]*-2[8:1],,,,,,,,5-8[8:1],,5-2[8:1],,5>6[8:3]*>6[8:3],,,,
{16}
,,,,,,,,{24}8-3[16:1],1-4[16:1],2-5[16:1],3-6[16:1],4-7[16:1],5-8[16:1],,,,,,,
{16}
,,,,,,,,8z4[4:1],,,,,,,,
{16}
5b-1[2:3],,,,,,,,,,,,,,,,
{16}
,,,,,,,,,,,,,,,,
{16}
5-8[2:3]*-2[2:3],,,,,,,,,,,,,,,,
{16}
,,,,,,,,,,,,,,,,
{16}
5w1[2:3],,,,,,,,,,,,,,,,
{16}
,,,,,,,,,,,,,,,,
{16}
7<5[8:1],,,,,,,,4>2[8:1],,,,,,,,
{16}
7<5[8:1],,,,4>2[8:1],,,,8w4[4:1],,,,,,,,
{16}
,,,,2q6[8:1]/6<2[4:1],,6>2[4:1],,2p6[8:1],,,,,,,,
{16}
4>1[8:1],,1<6[8:1],,6p1[8:1]/4q1[8:1],,,,,,,,2-8[8:1]/7-4[8:1],,,,
{16}
,,,,7p3[8:1]/3V17[4:1],,3V57[4:1],,7q3[8:1],,,,,,,,
{16}
5-8[8:1],,8-3[8:1],,5p1[8:1]/3q7[8:1],,,,,,,,8w4[8:1],,,,
{16}
,,,,2-8[8:1],,8-6[8:1],,4v2[8:1]*v6[8:1],,,,,,,,
{16}
3>8[8:1]/5<8[8:1],,,,,,,,1-5[8:1]/7-3[8:1],,,,,,,,
{16}
2b<4[8:3]/6b>8[8:3],,,,,,,,,,,,7-5[8:1],,,,
{16}
8-4[8:1],,,,1-3[8:1],,,,5-1[8:1],,,,5p4[2:3]*<4[2:3],,,,
{16}
,,,,,,,,,,,,,,,,
{16}
,,,,,,,,,,,,4-8[8:1],,,,
{16}
5bV38[2:3]/4bV25[2:3],
