&title=ハート111
&artist=ゆーり
&first=0
&des=shangle111
&lv_5=13
&inote_5=(129)
{1}
,
{4}
E7`B6,E7`B6,E7`B6,E7`B6,
2h[8:1]/4b,2b/4h[8:1],2h[8:1]/4b,{8}2b/4,1x,
{32}
B6/3x<6>3[4:3],E7,B7,,,,,,
{4}
7h[8:1],8h[8:1],7h[8:1],
6>3<6[4:3],2h[8:1],8h[8:1],2h[8:1],
3<7<3[4:3],8h[8:1],2h[8:1],8h[8:1],
6,2-5[32:3]/7-4[32:3],27,C`E5,
2b-6-3>8[16:11],7h[8:1],1h[8:1],7h[8:1],
5-7-3<4-1[16:11],2h[8:1],5h[8:1],2h[8:1],
4-8>2-5[16:11],6h[8:1],4h[8:1],6h[8:1],
7-1[32:3],7<5[32:3]/2>4[32:3],2v3b[8:1]/7v6b[8:1],,
{8}
1b-7[32:3]/5b,,1-3[32:3],4,1-7[32:3],6,1,4,2v1[32:5],2,5,6,3qq5[32:11],,7-4[32:3],,
7b,,3-6[32:3],2,6-3[32:3],7,3,2,1s5[8:2],1,6,7,8h[8:4],,4-8b[32:3],,4b`C,,
3>8[8:1],3,6<1[8:1],6,3>8[8:1],3,6q7[16:5],6,1,2,3-5b[64:5],3,8xv6[16:3],,3h[8:1],,
2-4[64:5],3,7-5[64:5],6,2-4[64:5],3,8,8h[8:3],7-4[8:1],7,7,1,1-5b[8:1],1,1b,,
{8}
1-3[32:3],4,1-7[32:3],6,1,4,2v1[32:5],2,5,6,3qq5[32:11],,7-4[32:3],,
7b,,3-6[32:3],2,6-3[32:3],7,3,2,1s5[8:2],1,6,7,8h[8:4],,4-8b[32:3],,4b`C,,
3>8[8:1],3,6<1[8:1],6,3>8[8:1],3,6q7[16:5],6,1,2,3-5b[64:5],3,8xv6[16:3],,3h[8:1],,
2-4[64:5],3,7-5[64:5],6,2-4[64:5],3,8,8h[8:3],7-4[8:1],7,7,1,1-5b[32:3],1,
{8}
1bv7<6V42<1[16:30],,,,,,,,8h[8:4],,,,,,8,,8xb<7V53>2v8[16:29],,,,,,,,,,1h[8:1],,1,,1-5b[32:3],,1bv7<6V42<1[16:30],,,,,,,,8x,,8x,,8x,,8x,,8xb<7V53>2v8[16:18],,,,,,,,,,,,2xv8b[8:1],,,,
{8}
1b-7[32:3]/5b,,1-3<4[32:3],4,1-7[32:3],6,1,4,5/2v1[32:5],2,5,6,3qq5[32:11],,7v4[32:3],,
7b,,3-6[32:3],2,6v3[32:3],7,3,2,1s5[8:2]/5,1,6,7,8h[8:4],,4-8b[32:3],,4b`C,,
3>8[8:1],3,6<1[8:1],5,3>8[8:1],3,6qq7[16:5],6,8,1,2-6b[64:5],2,8x-4-8[16:4],,3h[8:1],,
2-5[64:5],3,7-4[64:5],6,2-5[64:5],3,8,8h[8:3],7-4[8:1],7,7,1,1w5b[64:7],1,1xb,,
{8}
6b/5b,3b/7b,1b/2b,,3b/4b,6b/5b,3b/4b,2b/8b,3b/4b,6b/2b,8b/7b,,5b/4b,2b/6b,8b/7b,,4b/5b,7b/3b,1b/2b,,
2b/7b,2b/7b,3b/5b,4b/6b,5b/2b,4b/6b,1b/5b,5b/6b,7xb-3b[64:6],1xb,1xb,,
2b/4b,4b/5b,2b/4b,,1b/2b,3b/5b,1b/2b,4b/6b,1b/2b,7b/8b,5b/7b,,4b/6b,1b/2b,6b/5b,,3b/4b,2b/8b,7b/8b,,5b/6b,3b/4b,2b/8b,5b/7b,2b/3b,7b/8b,4b/6b,2b/4b,8b/6xb,1b,
{8}
1xb-7<6[32:3]/5b,,1>2v4[32:3],4,1-7<6[32:3],6,1,4,5/2v8>1[32:7],3,4,5,6v1<8-5[32:11],,2>3-5b[32:3],,
2b,,6/3-6[32:3],2,6v3[32:3],7,4,2,1v6-3-5[16:5]/5,1,6,7,1<7b[32:3],1,4-8b[32:3],,6b/4b`C,,
3-1<8[8:1],4,6-8>1[8:1],5,3-1<8[8:1],4,6-3<5-7[16:5],5,8,1,2<1-5b[64:8],2,8x-4-8[16:4],,3h[8:1],,
2>3-5[64:7],3,7v4[64:7],6,2-5<6[64:8],3,8,8h[8:3],7-4[8:1],7,7,1b,1b,1b,E7/B7/B6/E3/B2/B3,,
&inote_6=(129)
{1}
,
{4}
E7`B6,E7`B6,E7`B6,E7`B6,
5h[8:1]/1b`B1f,5h[8:1]/1b`B1f,5h[8:1]/1b`B1f,{8}5h[8:1]/1b`B1f,2x,
{32}
B6/3<6>3[4:3],E7,B7,,,,,,
{4}
7h[8:1],8h[8:1],7h[8:1],
6>3<6[4:3],2h[8:1],8h[8:1],2h[8:1],
3<7<3[4:3],8h[8:1],2h[8:1],8h[8:1],
6,2-5[32:3]/7-4[32:3],27,C`E5,
2b,
