&title=愛言葉V (Short ver)
&artist=DECO*27
&first=0
&des=YUKI*04
&clock_count=4
&lv_5=13+
&inote_5=(139){1},,,,
{8}Ch[8:1],,,1b-5[8:1]/8b-4[8:1],,,E5,,
{16}3x/5x,,3,4,2,,1/8,,7,,5/6,,3h[8:1],,4,,
{4}2-5[8:1],6-1[8:1],3-8[8:1],7h[8:1],
{8}1,1>4[8:1]*<6[8:1],,1,,5h[8:1]/7h[8:1],,2h[8:1]/4h[8:1],
{8},5h[8:1]/6h[8:1],,3h[8:1]/4h[8:1],,5,4h[8:1]/6h[8:1],,
{16}6x/4x,,6,5,7,,8/1,,2,,4/3,,6h[8:1],,5,,
{4}7-4[8:1],3-8[8:1],6-1[8:1],2h[8:1],
{8}8,8<5[8:1]*>3[8:1],,8,,4h[8:1]/2h[8:1],,7h[8:1]/5h[8:1],
{8},4h[8:1]/3h[8:1],,6h[8:1]/5h[8:1],,1b,1b,,
{4}2>6V42[2:3],,6,6,7,7,8,8,
{4}7<3V57[2:3],,3,3,2,2,1,1,
{4}2h[1:2]/8,,8,8,7,7,6,6,
{4}E7/E6,,E3/E4,,
{1}3qq5[8:3]/6pp4[8:3],
{16}3/5,,,,3/5,,4,,4/6,,5,,2/4,,3,,
{16}5/7,,6,,4/5,,3,,2-6[8:1],,1,,2,,,,
{16}1b>3[8:1]/7b<5[8:1],,,,,,,,4bv1[8:1]*v7[8:1],,,,,,,,
{16}2/8,,2,,3/7,,6-4[8:1],,4,,6,,3,,2,,
{16}2/4-6[8:1],,,,3,,,,5-3[8:1],,,,7,,,,
{16}8-6[8:1],,,,1,,,,3-1[8:1],,,,4,,,,
{16}2/5,,3,4,3,,4/5,,1/7,,6,5,6,,3/4,,
{16}3-8[8:1],,4,,5,,,,6-1[8:1],,5,,4,,,,
{16}2x/4x,,3,4,,6,5,,1/8,,2,,3,4,3,,6,5,6,,3,4,2,,1>4[8:1]/8,,,,,,,,
{16}7x/5x,,6,5,,3,4,,8/1,,7,,6,5,6,,3,4,3,,6,5,7,,8<5[8:1]/1,,,,,,,,
{16}3>6[2:1],,,,4,,4,,5,,5,,4,,,,
{16}3x>6b[2:1],,,,4,,4,,5,,5,,4,,,,
{8}4qq1[2:1]/5pp8[2:1],,,,,,,Cf,
{16},,1,8,,,{4}2b-5-8[4:1]/7b-4-1[4:1],{8},E5f/A5/A4,,
{16}7/1>4[8:1],,5,,1-5[8:1],,6,6,1,,8,,7h[8:1]/4,,2,,
{16}8<5[8:1]/1,,3,,8-4[8:1],,1,1,8,,3b,,8bx/1bx,,,,
{16}2/4,,3,,6,5,6,,4/7,,3/8,,1/2>6[4:1],,,,
{16}6<2[4:1],,,,2>6[4:1],,,,7,,8x-4[8:1],,,,8,,
{16}3x,3x,4,2,5,,4/6,,6x,6x,5,7,4,,5/3,,
{16}3,5,2,4,1w5[8:1],,,,1b,,,,3x/7x,,,,
{8}5/6,7,3/4,2,5/6,8,3/4,1,
{24}E6,B5,B4,{8}E4,{16}2x,,8,1,8-4b[8:1],,,,8b,,,,
{16}2/8<5[8:1],,4,,8-4[8:1],,3,3,8,,1,,2h[8:1]/5,,7,,
{16}1>4[8:1]/8,,6,,1-5-2[4:1],,8,8,1,,6b,,8b,,,,
{16}7/5,,6,,3,4,3,,5/2,,6/1,,8/7<3[4:1],,,,
{16}3>7[4:1],,,,7<3[4:1],,,,2,,1x-5[8:1],,,,1,,
{16}6x,6x,5,7,4,,5/3,,3x,3x,4,2,5,,4/6,,
{16}6,4,7,5,8w4[8:1],,,,8b,,,,6x/2x,,,,
{8}4/3,2,6/5,7,5/3,1,6/4,8bx/Cf,{4},Ch[4:1],,
(145)
{4}1-4[139#8:1],
(139)
{4}1bx-6[8:1],1-5[8:1],1,3/7,
{8}4/6,6/4pp4[4:1]*qq4[4:1],,,,,,2-6[8:1],
{8}2,8-5[8:1],8,1-5[8:1],1,6,6,,
{4}4-7[8:1]*-8[8:1],4b,5-1[8:1]*-2[8:1],5b,
{8}8<7-1-6-2[2:1],,2,2,3,3,4,4,
{8}3h[8:1],,2qq8[4:1]/4<7[4:1],,,,,1x/6x,
{8}2h[2:1],8,8,8,8,2/8,3/7,4/6,
{12}6,5,7,3,4,2,{8}1xv4[8:1]/8x-4b[8:1],,1b/8b,,
{8}3bx/5bx,1,4/6,8-4[8:1],4>1[8:1]*<7[8:1],8,,,
{8}6x-1[8:1],5-2[8:1],6,5,8-3[8:1]*-5[8:1],1,8,,
{8}4x/6x,8,3/5,1-5[8:1],5>2[8:1]*<8[8:1],1,,,
{8}1-5qq3[8:3]*-5pp7[8:3],,,,,,2/8,,
{16}4x/6x,,,,5/7,,5-1[8:1]/7,,,,6-2[8:1],,,,
{16}3xh[4:1],,,,1x,,8<3[4:1],,,,B2/B3,,,,1>6[4:1],,,,
{16}B6/B7,,,,8-5[8:1],,,,2/8,,,,4-1[8:1],,,,6/4,,,,7h[4:1],,,,1h[4:1],,,,
{16}8v2>3-5[2:3]*<7-5[2:3],,8,,
{2},,,{8},,,{24}E5,B4,B3,
{1}7xqq4[2:5],,,
{8}3h[4:1],4,5,6,6h[4:1],5,4,B3,
{1},
E
