&title=Elemental Creation[ST]
&artist=dj TAKA meets DJ YOSHITAKA
&first=-0.05
&des=om
&des_2=-
&des_3=-
&des_4=om
&des_5=om
&lv_2=5
&lv_3=10
&lv_4=12+
&lv_5=14
&inote_2=(212){4},{1},{4}6,
6,6,
,7/5,{1},{4}3,
3,
3,2/4,,,,5-8[2:1],
,,,4-1[2:1],
,,,8h[1:1],
,,,1-5[2:1],
,,,4,
4,4,
,3/4,,4/3,
,2,2,2,
,1/2,,1/2,
,8<5[2:1],,,,4>1[2:1],
,,,8,
8,7/1,
,8>4[2:1],,,,5,
5,5,
,6/5,,6/5,
,7,7,7,
,8/7,,7/8,
,1>4[2:1],,,,5<8[2:1],
,,,1,
1,2/8,
,1<5[2:1],,,,4,
4,3,
,2,2,3/1,
,8,8,7,
,7-4[2:1],,,,5,
5,6,
,7,7,6/8,
,1,1,2,
,2>5[2:1],,,,6,
6,7,
7,8-4[2:1],,,,3,
3,2,
2,1-5[2:1],,,,6,
6,6,
,7,7,7,
,8,8,8,
,8<4[2:1],,,,3,
3,2,
2,1-5[2:1],,,,6,
6,7,
7,8-4[2:1],,,,3,
3,3,
,2,2,2,
,1,1,1,
,1>5[2:1],,,,6b/4b,
{1},,,{4},,,3h[2:1],
,,,4h[2:1],
,,,5h[2:1],
,,,6h[2:1],
,,,7<4[4:3],
{1},{4},,,3>8[4:3],
{1},{4},,,7-3[4:3],
{1},{4},,,2-6[4:3],
{1},{4},,,4,
,4,
,3,,3,
,2,,2,
,1,,1,
,8,,8,
,7,,7,
,6,,6,
,5-1[2:1],,,,8/2,
,,,7/1,
,,,8/2,
,,,7/1,
,,,1,
1,1,
,8,8,8,
,8h[2:1]/1h[2:1],,,,2,
,1,
,8,,7,
,8<1[2:3],{1},{4},,,8,
8,8,
,7/6,,7/6,
,6,6,6,
,5/4,,5/4,
,4h[2:1],,,,3h[2:1],
,,,2,
2,2,
,1h[2:1]/3h[2:1],,,,1,
1,1,
,2/3,,2/3,
,3,3,3,
,4/5,,5/4,
,5h[2:1],,,,6h[2:1],
,,,7,
7,7,
,6h[2:1]/8h[2:1],,,,7,
7,7,
,8,8,8/7,
,1,1,1,
,2h[2:1],,,,3,
3,2/4,
,4,4,5/3,
,5,5,6/4,
,6<1[2:1],,,,2>5[2:1],
,,,3b/6b,
&inote_3=(212){4},{1},{4}7h[8:1]/2h[8:1],
{8},7/2,,2/7,
,2/7,{4}2-5[8:3]/7-4[8:3],{1},{8}6h[8:1]/3h[8:1],
{4},{8}6/3,
,3/6,{4}3-8[8:3]/6-1[8:3],,,,5/2-6[2:1],
,,,4/7-3[2:1],
,,,1h[4:1],
,1h[4:1],
,1,2,3,
4,5b/6b,5/6,4/7,
5/6,4/7,5/6,5/6,
,4/3,4/3,5/2,
4/3,5/2,4/3,4/3,
,2-5[2:1],,,,7-4[2:1],
,,,3/5,
3/5,3/5,
3/5,4bV68[2:1]*V28[2:1],,,,7b/8b,
7/8,6/1,
7/8,6/1,7/8,7/8,
,2/1,2/1,3/8,
2/1,3/8,2/1,2/1,
,3-6[2:1],,,,7-2[2:1],
,,,3/1,
3/1,8/6,
6/8,7bz3[2:1]*s3[2:1],,,,4b/3b,
3/4,5/6,
5/6,7/8,8/7,2/1,
2/1,2-5[4:1],,1-6[4:1],
,4,3,2,
1,7/8,7/8,6/5,
6/5,4/3,4/3,2/1,
2/1,2-5[4:1],,1-6[4:1],
,4h[8:1],{8},4,,4,
{4}4,3b/5b,2/6,3/5,
2/6,3/5,1/7,3/5,
,6/4,7/3,6/4,
7/3,6/4,8/2,6/4,
,7<4[4:1],,1>4[4:1],
,8<5[4:1],,2>5[4:1],
,7,7,8/6,
8/6,5h[8:1],{8},5,,5,
{4}5,3b/4b,5/6,3/4,
5/6,4/3,7/8,4/3,
,2/1,8/7,2/1,
8/7,1/2,6/5,1/2,
,3b-8[4:1],,4-7[4:1],
,5b-2[4:1],,6-1[4:1],
,2b,2,3/1,
1/3,4<7[4:1],,8>3[4:1],
,4bw8[4:5],{1},,,{4},,,5,
{8}5,{4},{8}4h[8:1]/6h[8:1],
{4},7,{8}7,{4},{8}6h[8:1]/8h[8:1],
{4},1,{8}1,{4},{8}2h[8:1]/8h[8:1],
{4},3-7[2:1],,,,6h[4:3]/1h[4:3],
,,,7h[4:3]/2h[4:3],
,,,3h[4:3]/8h[4:3],
,,,4h[4:3]/1h[4:3],
,,,2h[4:3]/5h[4:3],
,,,3h[4:3]/6h[4:3],
,,,8h[4:3]/1h[4:3],
,,,4h[4:3]/5h[4:3],
,,,3,
3,3h[8:1],
,6h[8:1],6h[8:1],6h[8:1],
,2,2,2h[8:1],
,7h[8:1],7h[8:1],7h[8:1],
,1,1,1h[8:1],
,8h[8:1]/1h[8:1],1h[8:1]/8h[8:1],1h[8:1]/8h[8:1],
,2/7,2/7,2h[8:1]/7h[8:1],
,3V58[2:1]/6V41[2:1],,,,{8}7b,
7,8,8,{4}8h[4:1],
,{8}2b,2,1,1,{4}1h[4:1],
,{8}6b,6,5,5,{4}5h[4:1],
,{8}3b,3,4,4,{4}4>2[4:1],
,{8}1b,1,{4}1,{8}8b,8,
{4}8,{8}7b,7,{4}7,{8}6b,6,
{4}6,5-1[2:1],,,,2h[8:1]/8h[8:1],
{8},2/8,,2/8,
,1/7,{4}7h[8:1]/1h[8:1],{8},7/1,,7/1,
,8/2,{4}2-5[2:1]/8-5[2:1],,,,4,
3,2,
1,7b/8b,6/5,8/7,
6/5,8/7,4/3,7/1,
1/7,2/1,3/4,1/2,
3/4,1/2,5/6,2/8,
8/2,1-5[2:1],,8,
8,8-4[2:1],,1,
1,1,2/8,3/7,
4/6,5h[8:1]/1h[8:1],{8},5/1,,8/4,
{4}4/8,3b/5b,8/1,6/4,
8/1,5/2,4/7,5/2,
4/7,2/8,5/4,7/1,
5/4,8/3,1/6,8/3,
1/6,7<4[2:1],,1,
1,2>5[2:1],,8,
8,8,7/1,2/6,
3/5,4-8[2:1],,,,1b,
1,3/2,
3/2,4/5,6/7,8/1,
2/3,4<8[2:1],,3h[4:1],
,1q7[2:1]/2>6[2:1],,,,8b,
8,6/7,
6/7,5/4,3/2,1/8,
7/6,5>1[2:1],,6h[4:1],
,7h[8:1]/8h[8:1],{8},7/8,,6/1,
{4}1/6,2h[8:1]/1h[8:1],{8},2/1,,3/8,
{4}8/3,4bz8[2:1]/5bs1[2:1],
&inote_4=(212){4},{1},{8}3/5,
3/5,,6h[8:1],,7h[8:1],
,1/8,{4}1z5[2:1]/8s4[2:1],{1},{8}6/4,
6/4,,3h[8:1],
,8/2,{4}8z4[2:1]/2-6[2:1],,,,7h[4:3],
{8}4,4,{4}4,
3,2h[4:3],{8}5,5,{4}5,
6,8h[2:1],,7h[4:1],
6h[4:1],5-3[8:1],8-6[8:1],1-3[8:1],
4-6[8:1],2h[8:1],2h[8:1],2h[8:1]/8-4[16:3],
8/2h[8:1],2h[8:1],2h[8:1],2h[8:1]/5-1[16:3],
2/5,3h[8:1],3h[8:1],3h[8:1]/1v6[16:3],
1/3h[8:1],3h[8:1],3h[8:1],3/6<8[8:1],
,{8}1,1,4,4,{4}2h[4:1],
7,{8}3,3,6,6,{4}4h[4:1],
1,7-2[8:1],7/3,3-6[8:1],
3/7,{8}4b/5b,4/5,,2b/7b,,4/5,
{4}4b/5b,7h[8:1],7h[8:1],7h[8:1]/1v4[16:3],
1/7h[8:1],7h[8:1],7h[8:1],7h[8:1]/4p8[16:3],
7/4,6h[8:1],6h[8:1],6h[8:1]/8>3[16:3],
8/6h[8:1],6h[8:1],6h[8:1],6/3>1[8:1],
3,{8}8,8,5,5,{4}7h[4:1],
2,{8}6,6,3,3,{4}5h[4:1],
8,1-4[8:1],1/5,5-8[8:1],
1/5,3h[8:1],3h[8:1],2h[8:1]/6h[8:1],
2h[8:1]/6h[8:1],1b,1/8,8,
8/7-4[8:1],8-3[8:1],7-4[8:1],8-3[8:1],
7qq4[4:3],8,8,8,
8,5h[8:1],3h[8:1],6h[8:1],
2h[8:1],8,8/1,1,
1/2-5[8:1],1-6[8:1],2-5[8:1],1-6[8:1],
2pp5[4:3],1,1,1,
1,{8}8b/1b,8/1,,6b/3b,,8/1,
{4}1b/8b,{8}7,2,7,2,7h[8:1],2h[8:1],
7h[8:1],2h[8:1],5,4,7,2,5,4,
{4}7/2,{8}3,6,3,6,3h[8:1],6h[8:1],
3h[8:1],6h[8:1],1,8,3,6,{4}1-5[8:1]/8-4[8:1],
,3h[2:1],{8}6v3[4:1],6,{4}6,
1,5h[2:1],{8}3v6[4:1],3,{4}3,
8,7h[8:1]/5h[8:1],4h[8:1]/6h[8:1],3h[8:1]/5h[8:1],
2h[8:1]/4h[8:1],{8}8b/1b,8/1,,6b/3b,,8/1,
{4}1b/8b,{8}2,2,6,6,2,2,
6,6,3,3,7,7,{4}4>1[8:1],
,{8}7,7,3,3,7,7,
3,3,6,6,2,2,{4}5<8[8:1],
,1h[2:1],{8}4V68[4:1],4,{4}4,
2,8h[2:1],{8}5V31[4:1],5,{4}5,
7,2h[8:1]/6h[8:1],3h[8:1]/7h[8:1],2h[8:1]/6h[8:1],
3h[8:1]/7h[8:1],8-4[8:1],2-6[8:1],7<4[8:1],
1>4[8:1],8bw4[4:11],{1},,,{4},,,6h[4:3],
{2}5,
{4}5,5h[4:3],{2}4,
{4}4,4h[4:3],{2}3,
{4}3,3h[2:1],,,,8/1h[1:1],
,,,2h[1:1],
,,,3h[1:1],
,,,4h[1:1],
,,,5h[1:1],
,,,7h[1:1],
,,,8h[1:1],
,,,6h[1:1],
,,,5<1[4:5],
,3,
,,,3,
,4>8[4:5],,6,
,,,6,
,6p3[4:5],,2,
,,,2,
,2s6[4:3],,7,
,8>7[2:1]*<1[2:1],,,,{8}2b,
2h[8:5],8,8,{4}8-4[8:1],
8,{8}7b,7h[8:5],1,1,{4}1-5[8:1],
1,{8}2b,2h[8:5],7,7,{4}7-3[8:1],
7,{8}6b,6h[8:3],2z6[16:5],2,{2},{8}5/4,
4/5,3b,3,4/5,4/5,
6b,6,4/5,4/5,2b,2,4/5,4/5,
7b,7,{4}5-8[2:1]/4-1[2:1],,,,{8}3/6,
6/3,,2/8,,1,
,2/8,6/3,3/6,,7/1,,8,
,7/1,{4}1h[2:1],,2h[4:1],
3h[4:1],4<6[8:1],1>3[8:1],8<6[8:1],
5>3[8:1],7h[8:1],7h[8:1],7h[8:1]/2v5[16:3],
2/7h[8:1],8h[8:1],8h[8:1],{8}4,4,
{4}4b/8b,2h[8:1],2h[8:1],2h[8:1]/7v4[16:3],
7/2h[8:1],1h[8:1],1h[8:1],1h[8:1]/8-5[8:1],
8/1,{8}2,2,4,4,5,5,
7,7,3,3,6,6,8,8,
1,1,{4}2-5[8:1],7-4[8:1],3-8[8:1],
6-1[8:1],{8}3b,3,,6b/8b,,2/4,
{4}6b/8b,3h[8:1],3h[8:1],3h[8:1]/6v1[16:3],
6/3h[8:1],4h[8:1],4h[8:1],{8}8,8,
{4}8b/4b,6h[8:1],6h[8:1],6h[8:1]/3v8[16:3],
3/6h[8:1],5h[8:1],5h[8:1],5h[8:1]/1-4[8:1],
1/5,{8}6,6,3,3,7,7,
2,2,8,8,8/3,8,4,4,
4/7,4,{4}6<1[8:1],6/2>5[8:1],6-2[8:1]/2-6[8:1],
2/6,8h[4:1],4,{16}3,5,{8}3,
{16}6,4,{8}6,1,2,3,4h[8:3],,5,
6,7,{4}8>3[8:1],8/4-7[8:1],4/8-3[8:1],
8/4<7[8:1],4/8h[2:1],{8},1,{4}1-5[8:1],
,{16}3,4,{8}3,{16}6,5,{8}6,{16}2,4,{8}2,
{16}7,5,{8}7,8b,7,6,5h[8:3],,4,
3,2,{4}1b<6[8:1],1/5-2[8:1],5/1-6[8:1],
1/5>2[8:1],5b/1h[2:1],{8},8,{4}8b-4[8:1],
,{8}2/6,2pp4[16:3]/6pp8[16:3],,2/6,,3/7,
{4}3/7,{8}8/4,8qq6[16:3]/4qq2[16:3],,8/4,,7/3,
{4}3/7,5/1bV75[16:5]*V35[16:5],
&inote_5=(212){4},{1},{8}3/5,
3/5,,4/6,,3/5,
,5/3,{4}4/6-8[8:1],{8}6/4-2[8:1],4,{4}4/1-4[8:1]*-6[8:1],
{2}1,{8}3/5,3/5,,4/6,
,3/5,{4}6/4-2[8:1],{8}4/7-5[8:1],8-4[8:1],7-3[8:1],8,
{4}7,{32}1-6[32:5]*V75[16:3],2,3,4,{8},{4}1,{8}3h[8:1],4,
{4}3,{32}8-3[32:5]*V24[16:3],7,6,5,{8},{4}8,{8}6h[8:1],5,
{4}6,1h[2:1],,2h[4:1],
3h[4:1],{8}6,{16}4,7,{8}4,{16}5,2,{8}5,{16}1,8,
{32}1,2,3,4,5,6,7,8,{8}1b-3[8:1],7,1,7-5[8:1],1,7,
1-3[8:1],7,1,7-5[8:1],1,7,{4}1-4[8:1]*-6[8:1],
1,{8}5-7[8:1],3,5,3-1[8:1],5,3,
6-8[8:1],4,6,4-2[8:1],6,4,5h[8:1],{16}1,2,
3/4,5,6,7,{8}8/1-6[8:1],2-5[8:1],1,2,7,7,
{16}5,4,3,2,{8}1/8-3[8:1],7-4[8:1],8,7,2,2,
6,6,1h[8:1],{16}7,5,{8}7,{16}2,4,{8}2,{16}6,5,
{8}6,{16}3,4,{8}3/5,6b/2b,,5/3,,6b/2b,
{4}5b/3b,{8}8b-6[8:1],2,8,2-4[8:1],8,2,
8-6[8:1],2,8,2-4[8:1],8,2,{4}8-5[8:1]*-3[8:1],
8,{8}4-2[8:1],6,4,6-8[8:1],4,6,
3-1[8:1],5,3,5-7[8:1],3,5,4h[8:1],{16}8,7,
6/5,4,3,2,{8}1/8-4[32:5],7,8,7,1-3[8:1],6,
1,{16}6,7,{8}8-6[8:1],4,8,4,1-5[8:1],3,
1,3,7h[8:1],{16}2,4,{8}3,{16}7,5,{8}6,{16}3,4,
{8}3,{16}6,5,{4}6h[8:1],3h[8:1],{16}3,4,5,6,
3,4,5,6,{8}7h[8:3],1,3,4>1[4:1],,8,
7,6,5h[8:1],{16}1,2,{8}3h[8:1],{16}8,7,{8}6h[8:1],{16}2,3,
{8}4h[8:1],{16}7,6,{4}5h[4:1],{8},4/6,{4}4v1[8:1]/6v1[8:1],
,{16}8,6,1,7,2,8,3,1,2,4,3,5,
4,6,3,7,{8}2h[8:3],8,6,5<8[4:1],,1,
2,3,4h[8:1],{16}8,7,{8}6h[8:1],{16}4,3,{8}2h[8:1],{16}7,6,
{8}5h[8:1],{16}3,2,{4}1h[4:1],{8},8/2,{4}2v5[8:1]/8v5[8:1],
,{8}6/4,3b/7b,,4/6,,3b/7b,
{4}4b/6b,2b-5[8:1],{8}2/6,7-4[8:1],,7/3,
{4}2-5[8:1],{8}2/6,7-4[8:1],,3/7,{4}1-5[8:1]*-3[8:1],
1,{8}6-8[32:3],6,2-4[32:3],2,6<8[32:3],6,
2>4[32:3],2,6-8[32:3],6,2-4[32:3],2,1,{16}8,2,
7,3,6,4,{8}5>2[8:1],6,7,8<5[8:1],1,2,
3h[16:1],3h[16:1],3<6[8:1],2,1,8>3[8:1],7,6,
5h,5h,5/4,{16}3,4,{8}3,{16}5,4,5,6,7,8,
1,2,3,4,{8}5/1,1b/5b,,3/7,,1b/5b,
{4}3b/7b,8b-4[8:1],{8}8/2,1-5[8:1],,1/7,
{4}8-4[8:1],{8}8/2,1-5[8:1],,1/7,{4}8-4[8:1]*-6[8:1],
8,{8}3>1[32:3],3,7<5[32:3],7,3-1[32:3],3,
7-5[32:3],7,3>1[32:3],3,7<5[32:3],7,8,{16}1,7,
2,6,3,5,{8}4V61[4:1],4,{4}7-2[8:1],7,
{16}1/3,8,7,6,{8}5V38[4:1],5,{4}2-7[8:1],2,
{8}6/5,4,4/5,{16}6,5,{8}6,{16}4,5,4,3,2,1,
8,7,6,5,{4}8/4h[8:1],6h[8:1],{16}6,5,4,3,
6>6[1:7],5,4,3,{4}2h[2:7],{1},,,{4},,,3h[4:1],
,{8},3h[8:1],
{4},4h[4:1],,{8},4h[8:1],
{4},5h[4:1],,{8},5h[8:1],
{1},{4},{48}2,
3,{24}4h[24:23],{4},{12},,{4}3,
,3h[1:1],,2,
,2h[1:1],,1,
,1h[1:1],,8,
,8h[1:1],,7,
,7h[1:1],,6,
,6h[1:1],,5,
,5h[2:1],,4,
,3h[32:1]/6h[32:1],,4,
{8},5,4,5,{4}4,3/5,
,4,,2,
{8},3,2,3,{4}2,1/3,
,2,,8,
{8},1,8,1,{4}8,7/1,
,8,,6,
,7z3[8:5],,5-1[8:1],
,{8}2/8,2/8,7h,7h,{16}1-5[8:1],8,2,8,
{4}1b,{8}4/6,4/6,2h,2h,{16}8-4[8:1],1,7,1,
{4}8b,{8}3/5,6/4,8h,8h,{16}2v5[8:1],2,2,2,
{4}2b,{8}6/4,3/5,1h,1h,{16}7bv4[8:1],7b,7b,7b,
{4}7b,{8}5/3,3/5,{16}4b,4,{8}4,2/8,2/8,
{16}1b,1,{8}1,4/6,6/4,{16}5b,5,{8}5,7/1,7/1,
{16}8bw4[8:7],8,{8}8,{1},{8}6,
6/4,,2/4-8[8:1],,4/7-4[8:1],
,7,3,3/5,,7/5-1[8:1],,5/2-5[8:1],
,2,{4}8h[2:1],,7h[4:1],
6h[4:1],{8}3,{16}5,2,{8}5,{16}4,7,{8}4,{16}8,1,
{32}8,7,6,5,4,3,2,1,{8}8-5[8:1],1,8,2-5[8:1],1,2,
7-4[8:1],8,7,1-4[8:1],8,1,6,7,
{4}8b/1b,{8}2-6[8:1],8,2,8-4[8:1],2,8,
1-5[8:1],7,1,7-3[8:1],1,7,1h[4:1],{16}2,3,
4,5,6,7,{8}8-4[8:1],8,1-5[8:1],1,2-6[8:1],2,
3-7[8:1],3,4,4h[8:1],8,8h[8:1],6,6h[8:1],
2,2h[8:1],{16}4,3,4,3,1,2,1,2,7,8,7,8,
6,5,6,5,{8}4/8,8b/4b,,6/2,,8b/4b,
{4}6b/2b,{8}3b-5[8:1],3,7-1[8:1],7,3-6[8:1],3,
7-2[8:1],7,3-8[8:1],3,7-4[8:1],7,3,2,
{4}1b/8b,{8}6>4[8:1],6,2<8[8:1],2,7v2[8:1],7,
3v6[8:1],3,7<4[8:1],7,3>8[48:5],3,8h[8:1],{16}7,6,
5,4,3,2,{8}1-5[8:1],1,8-4[8:1],8,7-3[8:1],7,
6-2[8:1],6,1p4[16:3],1,7p2[16:3],7,3p6[16:3],3,
8q5[16:3],8,{16}4,3,2,1,8,7,6,5,8,1,2,3,
4,5,6,7,{8}8h[8:1],{16}5,1,{8}4h[8:1],{16}7,3,6,5,2,3,
6,5,2,3,{8}6b<1[4:1],1,2,3h[2:1],,2,
4,5,6>4[8:1],{16}2,3,{8}6-2[8:1],{16}2,3,{8}6-1[8:1],{16}3,4,
{8}6p8[8:3]*p8[8:3],{16}3,4,{4}6,{8},1<5[16:3],{4}1,
,{16}1,2,3,4,7,6,5,4,2,3,4,5,
8,7,6,5,{8}3b>8[4:1],6,7,8h[2:1],,7,
6,5,4b>2[8:1],{16}7,6,{8}4-1[8:1],{16}7,6,{8}4-8[8:1],{16}6,5,
{8}4q1[8:3]*q1[8:3],{16}6,5,{4}4b,{8},8>5[16:3],{4}8b,
,{8}2/8,{32}2b/8b-4[0.7252##0.1238],7,6,5,4,3,2,1,{8}8h[8:3],,6,
{4}2b,{8}7/1,{32}7b/1b-5[0.7252##0.1238],2,3,4,5,6,7,8,{8}1h[8:3],,3,
{4}7b,{32}8bqq1[16:7]/4bqq5[16:7],7/3,6/2,5/1,
