&title=Glaring Eyes
&artist=USAO
&first=0.08
&des=老吴
&des_5=老吴
&lv_5=13+
&inote_5=(145){4}2xqq7>2pp4[1:3]*qq7>2pp4[1:3],{1},,,{4},{8},5xh[8:3],
,,{4}3-5[8:1],
5,{16}7,5,{8}7,{4}6-4[8:1],
4,3/5,{16}2,4,{8}2,{4}3-5[8:1],
5,4/6,{16}7,5,{8}7,{4}6h[4:1],
5,{8}4,3/5-8[4:1],,,,,{4}4x>1[2:1],
5,6,7,
8<5[2:1],1,2,3,
4>1[2:1],6,7,8,
2-4[8:1],5v3p6[8:3],{8},,,,3h[8:1],
{16}6,5,{8}6h[8:1],{16}3,4,{8}3h[8:1],{16}6,5,{8}6h[8:1],{16}3,4,
{8}2h[8:1],{16}6,5,{8}7h[8:1],{16}3,4,{8}2h[8:1],{16}6,5,{8}7h[8:1],{16}3,5,
4,5,4,5,3,6,3,6,2,7,2,7,1,8,1,8,
{32},,,1bz5[8:3]/7bs3[8:3],{4},,,{16},,3,
5,3,5,2,6,2,6,3-8[8:1],5,4,5,{8}3,7h[8:1],
{16}2,5,3,6,4,7,3,6,2-4[12:1],5,2-6[8:1],5,,,,,{8}3h[8:1],
{24}8x,7x,6x,{16}2,4,3,5,2,4,3,5,{8}E3/D3/A2,A7/D7/B7,
{16}1xh,2x,5xh,6x,2xh,3x,6xh,7x,3x-1-4[16:3],4x,7xh,8x,,,,,6,
5,7,5,6,4,5,3,4,2,5,1,{8}4,2h[8:1],
{16}8,1,7,2,6,4,7,3,8-4[8:1],2,,2,{8}8,1h[8:1],
{16}6,4,6,4,5,3,5,3,7,2,8,1,{4}7-5[8:1],
3-8[8:1],5<4[8:3],,,5h[8:1]/3h[8:1],
{16}2,4,2,4,3,4,3,4,2,4,{8}2h[8:1],
8,7,1/6,2,{16}3-8[8:1],4,2,5,{8}3,7h[8:1],
1-4[8:1],2,8-5[8:1],7,{16}1,2,{8}3>8[8:1],2,3/4,
7<4[8:1],6,3qq8[8:3],2,{16},,,,,,,,2,
6,1,7,{8}2,8/1,{16}6-8[8:1],5,7,5,{8}6,1h[8:1],
{16}7,8,6,1,5,2,{8}4,{16}3-1[8:1],5,3,5,{8}3,8h[8:1],
{16}2,5,3,6,4,7,3,6,2,5,1,4,{8}8,7h[8:1],
{24}1xs5-3[8:5],2x,3x,4x,{4},,,{16},{48},{4}5h[8:1],
6h[8:1],4h[8:1],3p8[4:3],
5h[8:1],6h[8:1],5h[8:1],4h[8:1],
{8}5xh[16:1],5xh[16:1],4xh[16:1],4xh[16:1],5xh[16:1],5xh[16:1],4xh[16:1],4xh[16:1],
E1/B8/B1,{16}E4,E6,Ch[8:1],,,A7/D8/E8,,E4/A3/D4,,,{4}1x-5[8:1],
{8}1/6-1[8:1],7,6/4-8[8:1],3,4/8,{16}7-4[8:1],1,,1,{8}7,
3,{16}2-5[8:1],8,,8,{8}2,7-3[8:1],6,7/1-5[8:1],2,
1/8,{16}6<1[8:1],4,,4,{8}6,3-8[8:1],2,3/7,6,
{16}5xh,6x,1xh,2x,6h,7x,2xh,3x,7x-5-8[16:3],8x,3xh,4x,,,,,{8}3-8[8:1],
2,3/5-1[8:1],6,5/1,{16}2-5[8:1],8,,8,{8}2,
6,{16}7-4[8:1],1,,1,{8}7,2-6[8:1],3,2/8-4[8:1],7,
8/1,{16}3>8[8:1],5,,5,{8}3,6-1[8:1],7,6/2,3,
{24}8xq1>3[8:5],7x,6x,5x,{4},,,{16},{48},{4}1bxpp4[1:1],
{8},,,,E6,E7,
E8,,,E3,,,E5,C,
E1,,,6x<3[16:19],,,,,{1}4xh[8:5],
{8}3h[8:1],4,3h[8:1],2,3h[8:1],4,3h[8:1],2,
3h[8:1],5,3h[8:1],7,4h[8:1],5,4h[8:1],7,
6h[8:1],5,6h[8:1],7,6h[8:1],4,6h[8:1],1,
{4}5h[8:1]/2qq7>2[8:5]*qq7>2[8:5],5h[8:1],5h[8:1],6h[8:1],
{1}3bx/7bx<7V53[1:1],
3xV17<7[1:1],
{2}5x-7-1-3b[16:9],4xh[8:3],
{32}5x,6x,{16}7x,,,{8}1xh[16:1],1xh[16:1],8x-5-7[16:3],8x,,,4,
3,2/4,3,4/5,{16}6,5,{8}7,8,
5,7,4/6,5,3/4,{16}2,5,{8}1,8,
7,7,6/8,5,3/4,{16}2,1,3,8,2,1,
{8}3,3,2/4,5,4/6,{16}7,3,8,2,7,3,
{4}6<2[2:1],2,3,4,
4>8[2:1],5,6,7,
8V64[2:1],1,2,3,
2-6[8:1],8-5-1b[4:1],{8},2bx,{4}2bx,
{8}4x/5x,{16}6,5,{8}6h[8:1],{16}3,4,{8}3h[8:1],{16}6,5,{8}6h[8:1],{16}3,4,
{8}2h[8:1],{16}6,5,{8}7h[8:1],{16}3,4,{8}2h[8:1],{16}6,5,{8}7h[8:1],{16}3,4,
1bx,5,2,6,3,7,3,7,2bx,6,3,7,4,8,4,8,
{32}4bxz8b[2:1],3x,2x,1x,,,,,,,,,,,,,{4}1x-5[8:1],1x,
{8}7xh[16:3],{16}1h,1h,8,2h,2h,2h,7,3h,,3h,{4}5-1[8:1],
{16}1bx,,,2x,2bx,8x,{32}8x,7x,6x,5x,{2}4x/3bxw7b[8:1],
{4}1h[4:1],{16}4,3,8,1,7,5,6,3,4-8[8:1],2,6,3,
{8}4<7[8:1],1,3/4>1[8:1],2,4/5,{16}7,8,6-1[8:1],2,7,4,
{8}6b,{16}3,3,8,8,3,3,4-8-6[4:1],2,5,3,{8}4,1,
2h[8:1],{16}4,3,8,1,6,5,7-3[8:1],3,8,2,{8}7,1b,
{16}2,4,3,5,1,8,2,7,5,6,4,7,3,5,1,8,
2,1,4,7,8,5,2,6,3,7,1,8,{8}2-8[8:1],3,
6/2,{16}7-4[8:1],1,6,2,{8}7,3,{16}2-5[8:1],8,1,7,{8}2,
{16}6b-1b[16:1],,,6b/4b,,,2,8,{8}3V16b[4:1]/7V15b[4:1],4/6,,,{4}D6f,
{16}3>8[8:1],4,{8}2,3/5-1[8:1],6,5/4-8[8:1],3,
4/7<4[8:1],6,7/1pp5b[8:3],2,5/1,6,7,8,
{32}7,6,{16}5,2,2,{32}6,7,{16}8,3,3,1-5-7[16:3],2,8,3,{8}1,2,
{16}3,8,5,8,3,6,2,4,1,8xh[16:3],,,{8}1,2b/7b,
{32}2x-8[12:1],3x,{16}4x,{8}7b,2x/6,5b,{32}3x-1[12:1],4x,{16}5x,{8}8b,3x/7,6b,
{32}5x-1[8:1],6x,{16}7x,{8}2b,3/5x,4b,{32}8x-4[8:1],7x,{16}6x,{8}3b,8x/2,1bh[8:1],
{32}5x,6x/2x,3x/7x,4x/8x,,,,,{8}1h[16:1]/2h[16:1],3/8,1h[16:1]/2h[16:1],1h[16:1]/2h[16:1],3h[8:1],{32}8x,7x,6x,5x,
{8}2/4,2/4,{16}1,5,2,6,3,7,4,8,{24}5x,6x,7x,8x,1x,2x,
{1}3bxp2[1:1]/6bxq6b[1:1],
E
