&title=A Man In The Mirror
&artist=orangentle
&first=0
&des=Guilty
&lv_5=14+
&inote_5=(180)
{1},
{4}3h[4:1],{8}5,6h[4:1]/4h[4:1],,,4,3h[4:1]/5h[4:1],
{4},{8}2,4,3h[4:1]/4v1[8:1],,,,
{4}2h[4:1],{8}8,7h[4:1]/1h[4:1],,,1,2h[4:1]/8h[4:1],
{4},{8}3,4,5,{16}2,4,2,4,2,4,
{4}3bh[4:1],4h[4:1],{8}5,{16}6,5,6,5,6,5,
{4}7bh[4:1],8h[4:1],{16}6,,,7/1,,,2/8,,
{4}3bh[4:1]/7,7h[4:1],{8}5h[8:1],,5,4b<3[2:1]/6,
{4},,{8},{16}E4,E5,E6,E7,E8,E1,
{4}E2/B2/A2,{16}A7,E7,B5,E5,A8,B8,B4,A4,E1,B1,E3,A3,
{4}B5/B4/E5f,{16}A2,E3,B4,E5,A1,B1,B5,A5,E1,B8,E7,A6,
{4}B5/B4/E5f,{16}7,8,7,8,6,1,6,1,5,2,5,2,
{16}4,4,,3/5,,3/5,,3h[8:1]/5h[8:1],,,4/6,,4/6,,4/6,,
{4}3b/7b,{8}2/4,2,3/5,3,{16}E6/4,E7,E8,,
{16},2,1<4[4:1],,{4},{16},,2h[4:1],,,,,,
{16}4,3,,2/5,,,6,5,6,,4/7,,2,1,2h[4:1],,
{16},,,,2,3,4,5,8,7,6,5,1,2,3,4,
{16}7,,7,8,7,,1/6,,1,8,1,8,2,7,2h[4:1],,
{16},,,,{12}2,2,2,4,4,4,3,3,3,
{16}4,3,,2/5,,,4/6,,7/8,,{16}8,1,2,3,5h[8:3],,
{4},{24}4,3,2,5,6,7,1,2,3,8,7,6,1b,,,,,,
{16}5/2,,4,3,,3,,3,4,2,,2,,2,,2,
{16}4,1,,1,,1,,8,4,,8,,8,,8,,
{16}6/1,,8,7,,7,,7,8,6,,6,,6,,6,
{16}8,5,,5,,5,,1,5,,1/6,,1/7,,1/8,,
{8}2b-4[8:1]/8b,,6,7,8/4,3,2/6,5,
{8}4/1-5[8:1],,7,,7,8,1/5,4,
{8}3/7-4[8:1],,1-5[8:1],,6-1[8:1],,3^6[8:1],,
{8}8q1[4:1],,,,2h[4:1],,8,,
{16}1,8h[8:1],,1,7h[8:1],,1,6h[16:5],,,,,5,,,,
{16}3h[8:1]/4h[8:1],,,5h[8:1]/6h[8:1],,,1h[8:2]/8,,,,8,,8,,1,1,
{8}8h[4:1],,{16}4,3,2,1,7,6,5,4,2,3,4,5,
{4}7h[4:1],{12}3,3,3,7,7,7,4b,,,
{4}4-2[8:1]/5,{8}4,6,1-5[8:1],8,1,7,
{8}4-2[8:1],,4/6,8,1-5[8:1],,7/1,,
{8}7,6,{16}5,3,4,2,8,,1/7,,2,,3,3,
{16}1,8,7,6,4,3,2,1,7,6,5,4,1,2,3,4,
{8}8bh[4:1],,1,8,1/7,6,7/5,4,
{16}3,3,4,,2,2,1,,3,4,2-5[8:1],4,3,,2,,
{16}7,7,5,6,3,5,2,4,1,8,1,8,2,7,2,7,
{8}1,,{12}1/8,1/8,1/8,{8}1/8h[4:1],,1,,
{8}1bx-5-7-2-4[4:3]/6bxh[4:5],,,,,,,,
{8},,4h[4:1],,6h[4:1],,5h[4:1],,
{8}7b,,5p3[2:1],6,,,,,
{16}A8/D8/E8,,,,A2/D3/E3,,,,A7/E8/E7,,,,A4/E4/E5,,,,
{8}8bx-4-2-7-5[4:3]/3bxh[4:4],,,,,,,,
{8},,5h[4:1],,4h[4:1],,6h[4:1],,
{8}5-1[8:1],,,,5-2[8:1]*-8[8:1],,,,
{16}1x,2,3,,8x,7,6,,1,8,1,8,2,8,2,8,
{8}1bh[4:1],7,7h[16:3],8,7-4[8:1],,1,,
{8}2h[4:1],,4h[16:3],3,4-8[8:1],,6,,
{8}5p4[4:1],,3,,3-8[8:1],,7-4[8:1]/3,,
{8}2-6[8:1]/7,,8h[4:1]/2,,5-1[8:1],,5,,
{8}7/8,6,{16}5,4,5,,{8}3/6,2/4,3/5,7,
{16}4,5,4,,6,5,6,,3,4,3,,2b/5b,,,,
{16}2b,4,3,4,3,4,3,4,2b,5,4,5,4,5,4,5,
{16}2b,6,5,6,5,6,5,6,2b,7,8,7,1b,,,,
{16}1/2,,3,3,4-8[8:1],,5,,4/6,,,7,,,6,6,
{16}5h[16:3],,,7,,,2,2,4h[8:1],,,4h[8:1]/3,,,4/5,,
{16}2>6[8:1]/8,,,,,,7,7,8,,,6/8,,,1/7,,
{16}6^3[8:1]/2,,,,6/1,,2,2,1-5[8:1],,8,,1,,6,6,
{16}4h[16:3],,,5,,,3/6,,1/8-4[8:1],,,,1/8,,3,3,
{16}5h[4:1],,,,4,,5,5,3^8[16:3],,,8^5[16:3],,,5V31[4:1],,
{8}5,,,{16}8,8,2x^5[16:3],,,5,,,7,,
{8}8,8,1/8,1/8,{16}1,8,2,8,1-6[8:1],8,2,7,
{8}1b,,3/7,,3-8b[8:1]/7-4b[8:1],,3b/7b,,
{16}2,1,2,1,3,7,4,6,1,8,1,8,2,8,3,7,
{16}5b,,,,4,3,2,1,7b/8,,7/8,,6,5,6,5,
{16}8b,,2,2,4,5,6,7,8/1b,2,3,4,5/7b,6,5-1[8:1]/3,,
{16},,3/5,,2,2,8,8,1,7,2,6,3,5,2,6,
{16}1b,,{24}5,4,6,{16}5,,6,4,7,3,8,2,1,2,8,3,
{16}7b,,{24}4,5,3,{16}4,,3,5,2,6,1,7,8,7,1,6,
{16}2,4,3,7,8,6,2,1,3,,2^5[8:1]/8^5[8:1],,,,2b/8b,,
{16},,{24}3,7,3,7,3,7,3,7,3,7,3,7,3,7,3,7,3,7,{16},,
{16}2,3,4,5,8,7,6,5,2,1,2,1,3,8,3,8,
{16}4b,3,2,1,7,6,5,4,2b,8,2,8,1,7,1,7,
{16}1b,,{32}1,2,3,4,E2,E3,E4,E5,{16},,7b,,{32}7,6,5,4,E7,E6,E5,E4,{16},,
{16}1bx/2bx,,3,8,3,8,4,7,5b,6,5,6,4,7,3,8,
{16}2b,,7,7,1,1,6,6,2,2,4,4,3,3,7,7,
{16}5,6,4,7,5,6,3,8,5,6,4,7,2bh[4:1],,,,
{32}7x,6,5,4,7x,6,5,4,7x,6,5,4,8x,7,6,5,8x,7,6,5,8x,1,2,3,8x,1,2,3,8x,1,2,3,
{32}8x,7,6,5,8x,7,6,5,8x,1,2,3,8x,1,2,3,8x,7,6,5,8x,7,6,5,1x,2,3,4,1x,2,3,4,
{16}5x/7x,,,7/5,,7/5,,7/5,,4/5,,4/5,,4/5,,4/5,
{16}6,7,,7/8,,7/8,,7/8,1x,,2/4,,2/4,,2/4,,
{16}6,5,,4/7,,4/7,,4/7,3,2,,2/1,,2/1,,1/2,
{16}8,7,,7/5,,5/7,,5/7,4,,4/6,,4/6bh[4:1],,,,
{32}2x,3,4,5,2x,3,4,5,2x,3,4,5,1x,2,3,4,1x,2,3,4,1x,8,7,6,1x,8,7,6,1x,8,7,6,
{32}1x,2,3,4,1x,2,3,4,1x,8,7,6,1x,8,7,6,1x,8,7,6,5,4,3,2,1,8,7,6,5,4,3,2,
{16}5x/1x,,,1/5,,1/5,,1/5,,3/7,,3/7,,3/7,,4/5,
{16}6,7,,7/8,,7/8,,7/8,1x,,2/4,,2/3,,2/1,,
{16}1w5b[8:1]/8,,,,1b,,,,
