&title=SAKURA BURST
&artist=Cö shu Nie
&first=0
&des=C.C.
&lv_5=13
&inote_5=(142)
{1},
{8}5>3[16:5],,,,C,,,,
{8}4<6[16:5],,,,C,,,,
{8}5>3[16:5],,,,C,,,,
{16}B1,,B7,,B3,,B5,,4<7[16:6],,,,,,,,
{8}C,,,,5>2[16:6],,,,
{8}C,,,,4<4[4:6],,,,
{8}C,,,,,,,,
{8}8qq6^8b[4:2],,,,,,,{16}2,3<6[32:3],
{16}4h[16:3],,,,,,7,,1/8h[16:4],,{24}E3,E4,E5,{16}E6,,7h[8:1],,
{16}5,6,4,5<8[32:4],,1,2,3,4h[16:4],,B8,,C,,B4,,
{16}6^3[32:3]/5h[32:6],,,,,,2,,1h[16:4]/8,,7,,6^3[32:3],,1,,
{16}2xq6[32:3]/6x,,,8,2x,,,7,{16}5,5,6,4,5,3,4,2^5[32:3],
{16}1h[16:3],,,2,1,,4,,5/6h[16:4],,{24}E4,E3,E2,{16}E1,,7h[8:1],,
{16}1,8,2,1<6[32:4],,5,4,3,2h[16:4],,5,4,3,2,1,8,
{16}3^8[32:3]/7,3/7^4[32:3],,,,,C,,E1,,E7,,E3,,E5,,
{8}3<2[8:4]/Cf,,,,,,,,
(144.3)
{8}4h[8:2],6,5-3[8:2],,,,,,
{8}6h[8:2]/3-5[8:2],,,,6-2[8:2],,,,
{8}8h[8:2],,,,1-7-5-3-1[8:8],,,,
{8},,,,,,,,
{8}5h[8:2],3,4-6[8:2],,,,,,
{8}3h[8:2]/6-4[8:2],,,,3-7[8:2],,,,
{8}1-7-5[8:4]*-3-5[8:4],,,,,,,,
{8}3-1[8:1],,8-4[8:1],,5-7[8:1],,8b,,
{16}1>4[8:1],,8,,7xh[16:1],,,,5p8[8:1],,6,,7xh[16:1],,,,
{16}5<8[8:1],,1,,2xh[16:1],,,,1p4[8:1],,3,,2xh[16:1],,,,
{16}3p6[8:1],,4,,5xh[16:1],,,,7>2[8:1],,5,,4xh[16:1],,,,
{8}45,,4-2-6-8[8:4]/5-7-3-1b[8:4],,,,,,
{16},,C,,E1f`A8/A1/B1/B8/D1,,,,
(145)
{16}7/5bpp6[16:3],,,,5qq4[16:3]/4,,3x,,2x,,,,8^3[8:1],,4^7[8:1],,
{16}8qq7[16:3],,,,,,,,2>5[8:1],,1,,6pp7[16:3]/2,,,,
{16}6/2pp3>4[8:5],,,,2,,7,,6h[2:1],,,,,,,,
{16}3,5,4,6,5,7,5,6,4,6,3,5,2,4,3,4,
{16}3bpp4[16:3],,,,3V14[4:1]/5,,6x,,7x,,,,8qq7[16:3],,7,,
{16}8/3qq2[16:3],,,,3x/8x,,,,7-4[8:1],,8,,3qq6<4[8:7]*q5<4[8:7]/7,,,,
{16}3b,,,,,,,,,,,,,,,,
{16}75,,64,,53,,24,,3,3,4,2,7,7,5,6,
{16}4bqq3[16:3],,,,4pp5[16:3]/5,,6x,,7x,,,,1^6[8:1],,5^2[8:1],,
{16}1pp2[16:3],,,,,,,,7<4[8:1],,8,,3qq4b[8:3]/7,,,,
{16}5pp4>5b[4:3]/3,,,,,,,,Cf,,,,,,,,
{16}3h[4:1],,1,,7h[4:1],,1,,5xh[16:3],,,4xh[16:3],,,3x,,
{16}5b^8[8:1]/2,,,,1pp1[4:1]/5,,3x,,7x/1x,,,,8<5[8:1],,6x,,
{16}8/4qq4[4:1],,2x,,4x/6x,,,,5xw1[8:1],,,,5b,,,,
{16}3h[8:1]/7h[8:1],,,,24,,3,,75,,6,,18,,27,,
{16}3,3,5,4,6,6,5,7,8,7,1,7,2,6,1,5,
(142)
{16}8bqq3[8:7],,,,,,,,,,,,,,,,
{16}2pp6[8:7],,,,,,,,,,,,,,,,
{16}5pp4[4:3],,,,,,,,,,,,,,,,
{16}B8,,B2,,B6,,B4,,5pp7^5b[4:4],,,,,,,,
{16},,,,,,,,3pp5^3b[4:4],,,,,,,,
{16},,,,,,,,1pp3^1b[4:4],,,,,,,,
(71)
{4},7pp1<1b[4:4],,,,
E
